Ссылка на приватное зеркало всего за 1$. Внимание количество ограничено!!!

OK

1+1

iTunes

мы

OK

1

WEB-DLRip

Джокер

Пифагор

Ведьмак / The Witcher сериал

Лицензия

ПШазам

ОК

Оно 2

iTunes

30
pack

Вам бонус

ВАЖНО

!!Акция!!

Alien_RageХит недели

RePack

Resident Evil 21

ИГРА 18+

pack

RePack

jed

!!Акция!!

Alien_Rage

RePack

fifa19

RePack

Assassins Creed: Odyssey

RePack

NEED FOR SPEED™ PAYBACK

4 сезон

9 сезон

Бесстыжие 9 сезон

Все сериалы

все сериалы на PB.wtf

RePack

FAR CRY 5
  

Ночь сожалений / A Night to Regret (Том Шелл) [2018 г., Триллер, WEBRip, Любительский (многоголосый) (Синема УС)] pb.wtf

Ночь сожалений через торрент pb.wtf

Размер: 1.31 GB | Добавлен: 1 год 4 мес. назад | Торрент скачан:41 раз
Скачать  

17-09-2018 03:41 Ночь сожалений Скачать торрент  

Ночь сожалений / A Night to Regret
Год выпуска: 2018
Страна: США / Creative Arts Entertainment Group Inc.,BondIt
Жанр: Триллер
Продолжительность: 01:19:40
Перевод: Любительский (многоголосый) (Синема УС)
Субтитры: Отсутствуют

Режиссер: Том Шелл

rating

В ролях: Маргерит Моро, Молли Грей, Кевин МакНамара, Кирстин Пфайффер, Гиги Зумбадо, Джереми Уэллс, Мэри Кейт Гаффни, Рори Гибсон, Тина Хуанг, Кристофер Кинсман

Описание: Когда Челси встречается со своей подругой детства, Милой, она точно не ожидает того, что последует за этой встречей. Мила снимается на видео для мужчин в интернете, и как-то во время съемок предлагает Челси записать свое видео. После этого девушку начинает преследовать сталкер, который ни остановиться ни перед чем, чтобы быть с ней.

Доп. информация: Присутствуют вставки текстовой рекламы

Качество: WEBRip
Формат: AVI
Видео кодек: XviD
Аудио кодек: AC3
Видео: XviD, 720x400, ~1952 Kbps
Аудио#1: AC-3, 2 ch, 384 Kbps
скриншот   скриншот   скриншот   скриншот  

Общее
Полное имя : D:\_Cinema\Ночь сожалений\A Night to Regret 2018 WEBRip.avi
Формат : AVI
Формат/Информация : Audio Video Interleave
Профиль формата : OpenDML
Размер файла : 1,31 Гбайт
Продолжительность : 1 ч. 19 м.
Общий поток : 2348 Кбит/сек

Видео
Идентификатор : 0
Формат : MPEG-4 Visual
Профиль формата : Advanced Simple@L5
Параметр BVOP формата : 2
Параметр QPel формата : Нет
Параметр GMC формата : Без точки перехода
Параметр матрицы формата : Выборочная
Идентификатор кодека : XVID
Идентификатор кодека/Подсказка : XviD
Продолжительность : 1 ч. 19 м.
Битрейт : 1952 Кбит/сек
Ширина : 720 пикселей
Высота : 400 пикселей
Соотношение сторон : 16:9
Частота кадров : 23,976 (24000/1001) кадра/сек
Цветовое пространство : YUV
Субдискретизация насыщенности : 4:2:0
Битовая глубина : 8 бит
Тип развёртки : Прогрессивная
Метод сжатия : С потерями
Бит/(Пиксели*Кадры) : 0.283
Размер потока : 1,09 Гбайт (83%)
Библиотека кодирования : XviD 1.2.1 (UTC 2008-12-04)

Аудио
Идентификатор : 1
Формат : AC-3
Формат/Информация : Audio Coding 3
Расширение режима : CM (complete main)
Параметр Endianness формата : Big
Идентификатор кодека : 2000
Продолжительность : 1 ч. 19 м.
Вид битрейта : Постоянный
Битрейт : 384 Кбит/сек
Каналы : 2 канала
Расположение каналов : Front: L R
Частота : 48,0 КГц
Частота кадров : 31,250 кадров/сек (1536 spf)
Метод сжатия : С потерями
Размер потока : 219 Мбайт (16%)
Выравнивание : Соединение по промежуткам
Продолжительность промежутка : 32 мс. (0,77 видеокадр)

pb.wtf



Скачать Ночь сожалений через торрент http://pic1.kartinco.top/images/11/ix6at.jpg Скачать фильм Ночь сожалений через торрент бесплантно в хорошем качестве Описание: Когда Челси встречается со своей подругой детства, Милой, она точно не ожидает того, что последует за этой встречей. Мила ... 10 10 1
Торрент: Зарегистрирован [2018-09-17 03:41] · скачан: 41 раз
Статус: T временная
Размер: 1.31 GB
Как cкачать? Как скачать Ночь сожалений через торрент | qTorrent

28-11-2019 20:33  

Отключить всю рекламу на сайте

    Дорогой пользователь! Огромная просьба, поблагодарите релизера, оцените раздачу и оставьте свои комментарий, если Вы скачали Ночь сожалений через торрент бесплатно! Внесите свою лепту в развитие PiratBit!
    Комментировать посты могут только пользователи прошедшие не сложную регистрацию
    Показать сообщения:    

    Ночь сожалений через торрент
    Скачать бесплатно Ночь сожалений
    Ночь сожалений скачать торрент
    Ночь сожалений смотреть онлайн
    Cкачать фильм Ночь сожалений бесплатно
    Ночь сожалений скачать торрент в хорошем качестве
    Ночь сожалений смотреть онлайн бесплатно в хорошем качестве


    Вы не можете начинать темы
    Вы не можете отвечать на сообщения
    Вы не можете редактировать свои сообщения
    Вы не можете удалять свои сообщения
    Вы не можете голосовать в опросах
    Вы не можете прикреплять файлы к сообщениям
    Вы можете скачивать файлы