Ссылка на приватное зеркало всего за 1$. Внимание количество ограничено!!!

iTunes

iTunes

iTunes

1

iTunes

iTunes

iTunes

WEBRip

iTunes

30
pack

$ от Little Big

ВАЖНО

!!Акция!!

Alien_RageХит недели

RePack

Resident Evil 21

ИГРА 18+

pack

RePack

jed

!!Акция!!

Alien_Rage

RePack

fifa19

RePack

Assassins Creed: Odyssey

RePack

NEED FOR SPEED™ PAYBACK

4 сезон

9 сезон

Бесстыжие 9 сезон

Все сериалы

все сериалы на PB.wtf

RePack

FAR CRY 5
  

Наследие / The Assassin's Code (Дэвид А. Армстронг) [2018 г., Триллер, боевик, WEBRip, Любительский (многоголосый) (Синема УС)] pb.wtf

Наследие через торрент pb.wtf

Размер: 1.32 GB | Добавлен: 1 год 10 мес. назад | Торрент скачан:98 раз
Скачать  

17-09-2018 04:04 Наследие Скачать торрент  

Наследие / The Assassin's Code
Год выпуска: 2018
Страна: США / Serious Stooges Films
Жанр: Триллер, боевик
Продолжительность: 01:35:37
Перевод: Любительский (многоголосый) (Синема УС)
Субтитры: Китайские (хардсаб)

Режиссер: Дэвид А. Армстронг

rating

В ролях: Джастин Чатвин, Петер Стормаре, Марк Томпсон, Робин Томас, Янси Батлер, Элизабет Энвейс, Рич Баттиста, Донтес Джеймс, Кристофер С. Меле, Мэтт О'Ши

Описание: В центре сюжета - пытающийся раскрыть своё первое крупное дело молодой полицейский-новобранец, сын убитого и опозоренного копа, за действиями которого пристально следит призрачный убийца.

Доп. информация: Присутствуют вставки текстовой рекламы

Качество: WEBRip
Формат: AVI
Видео кодек: XviD
Аудио кодек: AC3
Видео: XviD, 720x304, ~1583 Kbps
Аудио#1: AC-3, 2 ch, 384 Kbps
скриншот   скриншот   скриншот   скриншот  

Общее
Полное имя : D:\_Cinema\Наследие\The Assasins Code 2018 WEBRip.avi
Формат : AVI
Формат/Информация : Audio Video Interleave
Профиль формата : OpenDML
Размер файла : 1,32 Гбайт
Продолжительность : 1 ч. 35 м.
Общий поток : 1980 Кбит/сек

Видео
Идентификатор : 0
Формат : MPEG-4 Visual
Профиль формата : Advanced Simple@L5
Параметр BVOP формата : 2
Параметр QPel формата : Нет
Параметр GMC формата : Без точки перехода
Параметр матрицы формата : Default (MPEG)
Идентификатор кодека : XVID
Идентификатор кодека/Подсказка : XviD
Продолжительность : 1 ч. 35 м.
Битрейт : 1583 Кбит/сек
Ширина : 720 пикселей
Высота : 304 пикселя
Соотношение сторон : 2,35:1
Частота кадров : 23,976 (24000/1001) кадра/сек
Цветовое пространство : YUV
Субдискретизация насыщенности : 4:2:0
Битовая глубина : 8 бит
Тип развёртки : Прогрессивная
Метод сжатия : С потерями
Бит/(Пиксели*Кадры) : 0.302
Размер потока : 1,06 Гбайт (80%)
Библиотека кодирования : XviD 1.2.1 (UTC 2008-12-04)

Аудио
Идентификатор : 1
Формат : AC-3
Формат/Информация : Audio Coding 3
Расширение режима : CM (complete main)
Параметр Endianness формата : Big
Идентификатор кодека : 2000
Продолжительность : 1 ч. 35 м.
Вид битрейта : Постоянный
Битрейт : 384 Кбит/сек
Каналы : 2 канала
Расположение каналов : Front: L R
Частота : 48,0 КГц
Частота кадров : 31,250 кадров/сек (1536 spf)
Метод сжатия : С потерями
Размер потока : 263 Мбайт (19%)
Выравнивание : Соединение по промежуткам
Продолжительность промежутка : 32 мс. (0,77 видеокадр)

pb.wtf



Скачать Наследие через торрент http://pic1.kartinco.top/images/11/zli5u.jpg Скачать фильм Наследие через торрент бесплантно в хорошем качестве Описание: В центре сюжета - пытающийся раскрыть своё первое крупное дело молодой полицейский-новобранец, сын убитого и опозоренного копа, ... 10 10 3
Торрент: Зарегистрирован [2018-09-17 04:04] · скачан: 98 раз
Статус: T временная
Размер: 1.32 GB
Как cкачать? Как скачать Наследие через торрент | qTorrent

28-11-2019 20:33  

Отключить всю рекламу на сайте

    Дорогой пользователь! Огромная просьба, поблагодарите релизера, оцените раздачу и оставьте свои комментарий, если Вы скачали Наследие через торрент бесплатно! Внесите свою лепту в развитие PiratBit!
    Комментировать посты могут только пользователи прошедшие не сложную регистрацию
    Показать сообщения:    

    Наследие через торрент
    Скачать бесплатно Наследие
    Наследие скачать торрент
    Наследие смотреть онлайн
    Cкачать фильм Наследие бесплатно
    Наследие скачать торрент в хорошем качестве
    Наследие смотреть онлайн бесплатно в хорошем качестве


    Вы не можете начинать темы
    Вы не можете отвечать на сообщения
    Вы не можете редактировать свои сообщения
    Вы не можете удалять свои сообщения
    Вы не можете голосовать в опросах
    Вы не можете прикреплять файлы к сообщениям
    Вы можете скачивать файлы