Ссылка на приватное зеркало нашего сайта всего за 1$. Внимание количество ограничено!!!

2 сезон

iTunes

1 сезон

1

2 сезон

2 сезон

iTunes

1 сезон

RePack

30

Новинка

ВАЖНО

ИГРА 18+

pack

RePack

MK11
pack

Забери бонус

RePack

jed

!!Акция!!

Alien_Rage

RePack

fifa19

RePack

Assassins Creed: Odyssey

RePack

NEED FOR SPEED™ PAYBACK

4 сезон

9 сезон

Бесстыжие 9 сезон

Все сериалы

все сериалы на PB.wtf

RePack

FAR CRY 5
  

Абсолютная Влacть / Imperium (Даниэль Рагуссис) [2016, Триллер, драма, криминал, BD Remux 1080p] MVO [Лицензия / iTunes] pb.wtf

Абсолютная Влacть через торрент pb.wtf

Раздают: 1 [ 0 KB/s ]
Размер: 24.91 GB | Добавлен: 2 года 2 мес. назад | Торрент скачан:14 раз
Скачать  

17-09-2018 09:10 Абсолютная Влacть Скачать торрент  

Абсолютная Влacть / Imperium
Год выпуска: 2016
Страна: США
Жанр: Триллер, драма, криминал
Продолжительность: 01:48:36
Перевод: Профессиональный многоголосый | Лицензия / iTunes
Субтитры: английские

Режиссер: Даниэль Рагуссис

rating

В ролях:

Дэниэл Рэдклифф, Тони Коллетт, Трэйси Леттс, Сэм Трэммелл, Нестор Карбонелл, Крис Салливан, Сет Нумрик, Павел Жайда, Девин Друид, Берн Горман

Описание:

Агент ФБР под прикрытием внедряется в банду нео-нацистов для предотвращения теракта. Каково это — жить каждый день в потоке насилия и жестокости, отстаивать свое право кулаками, выбрить череп и закрыть душу? Что такое нео-нацизм -это не только хулиганы и скинхеды, но и благополучные господа в дорогих костюмах, готовые уничтожить город ради идеи.

Качество: BD Remux 1080p
Формат: MKV

Видео: MPEG-4 AVC, 1920x1080, 28.9 Mbit/s, 23.976 fps
Аудио#1: 48 kHz, AC3, 5.1, 384 Kbps | Профессиональный многоголосый (закадровый)|
Аудио#2: 48 kHz, DTS-HD MA, 5.1, 3535 kbps | Оригинал |
скриншот   скриншот   скриншот   скриншот   скриншот  

General
Unique ID : 246785041433290694745202181790915889829 (0xB9A911F2E191B632A2B93C43355C0AA5)
Complete name : G:VideoImperium.2016.BDREMUX.1080p.ExKinoRay.mkv
Format : Matroska
Format version : Version 4 / Version 2
File size : 24.9 GiB
Duration : 1 h 48 min
Overall bit rate mode : Variable
Overall bit rate : 32.8 Mb/s
Movie name : Imperium.2016 build by ***селезень***
Encoded date : UTC 2016-12-17 12:24:06
Writing application : mkvmerge v9.6.0 ('Slave To Your Mind') 64bit
Writing library : libebml v1.3.4 + libmatroska v1.4.5

Video
ID : 1
Format : AVC
Format/Info : Advanced Video Codec
Format profile : High@L4.1
Format settings, CABAC : Yes
Format settings, ReFrames : 4 frames
Codec ID : V_MPEG4/ISO/AVC
Duration : 1 h 48 min
Bit rate mode : Variable
Bit rate : 28.9 Mb/s
Maximum bit rate : 37.0 Mb/s
Width : 1 920 pixels
Height : 1 080 pixels
Display aspect ratio : 16:9
Frame rate mode : Constant
Frame rate : 23.976 (24000/1001) FPS
Color space : YUV
Chroma subsampling : 4:2:0
Bit depth : 8 bits
Scan type : Progressive
Bits/(Pixel*Frame) : 0.581
Stream size : 21.9 GiB (88%)
Title : Imperium.2016 build by ***селезень***
Language : English
Default : Yes
Forced : No

Audio #1
ID : 2
Format : AC-3
Format/Info : Audio Coding 3
Mode extension : CM (complete main)
Format settings, Endianness : Big
Codec ID : A_AC3
Duration : 1 h 48 min
Bit rate mode : Constant
Bit rate : 384 kb/s
Channel(s) : 6 channels
Channel positions : Front: L C R, Side: L R, LFE
Sampling rate : 48.0 kHz
Frame rate : 31.250 FPS (1536 spf)
Bit depth : 16 bits
Compression mode : Lossy
Stream size : 298 MiB (1%)
Title : iTunes
Language : Russian
Default : Yes
Forced : No

Audio #2
ID : 3
Format : DTS
Format/Info : Digital Theater Systems
Format profile : MA / Core
Mode : 16
Format settings, Endianness : Big
Codec ID : A_DTS
Duration : 1 h 48 min
Bit rate mode : Variable / Constant
Bit rate : 3 535 kb/s / 1 509 kb/s
Channel(s) : 6 channels
Channel positions : Front: L C R, Side: L R, LFE
Sampling rate : 48.0 kHz
Frame rate : 93.750 FPS (512 spf)
Bit depth : 24 bits
Compression mode : Lossless / Lossy
Stream size : 2.68 GiB (11%)
Title : Original
Language : English
Default : No
Forced : No

Text #1
ID : 4
Format : UTF-8
Codec ID : S_TEXT/UTF8
Codec ID/Info : UTF-8 Plain Text
Duration : 1 h 39 min
Bit rate : 85 b/s
Count of elements : 1558
Stream size : 62.5 KiB (0%)
Title : Full
Language : English
Default : No
Forced : No

Text #2
ID : 5
Format : UTF-8
Codec ID : S_TEXT/UTF8
Codec ID/Info : UTF-8 Plain Text
Duration : 1 h 39 min
Bit rate : 88 b/s
Count of elements : 1609
Stream size : 64.8 KiB (0%)
Title : SDH
Language : English
Default : No
Forced : No

Menu
00:00:00.000 : en:00:00:00.000
00:07:07.260 : en:00:07:07.260
00:14:49.680 : en:00:14:49.680
00:21:11.645 : en:00:21:11.645
00:27:08.836 : en:00:27:08.836
00:33:24.002 : en:00:33:24.002
00:39:43.256 : en:00:39:43.256
00:46:01.008 : en:00:46:01.008
00:51:49.565 : en:00:51:49.565
00:57:56.640 : en:00:57:56.640
01:05:00.271 : en:01:05:00.271
01:11:59.899 : en:01:11:59.899
01:19:28.222 : en:01:19:28.222
01:26:43.573 : en:01:26:43.573
01:30:29.799 : en:01:30:29.799
01:38:49.590 : en:01:38:49.590

pb.wtf



Скачать Абсолютная Влacть через торрент http://img11.lostpic.net/2018/09/17/de8a6cd20d5205212b61dce7a2031e0c.jpg Скачать фильм Абсолютная Влacть через торрент бесплантно в хорошем качестве Описание: Агент ФБР под прикрытием внедряется в банду нео-нацистов для предотвращения теракта. Каково это — жить каждый день в потоке ... 8.8 10 4
Торрент: Зарегистрирован [2018-09-17 09:10] · скачан: 14 раз
Статус: √ проверено
Размер: 24.91 GB
Как cкачать? Как скачать Абсолютная Влacть через торрент | qTorrent

28-11-2019 20:33  

Отключить всю рекламу на сайте

    Дорогой пользователь! Огромная просьба, поблагодарите релизера, оцените раздачу и оставьте свои комментарий, если Вы скачали Абсолютная Влacть через торрент бесплатно! Внесите свою лепту в развитие PiratBit!
    Комментировать посты могут только пользователи прошедшие не сложную регистрацию
    Показать сообщения:    

    Абсолютная Влacть через торрент
    Скачать бесплатно Абсолютная Влacть
    Абсолютная Влacть скачать торрент
    Абсолютная Влacть смотреть онлайн
    Cкачать фильм Абсолютная Влacть бесплатно
    Абсолютная Влacть скачать торрент в хорошем качестве
    Абсолютная Влacть смотреть онлайн бесплатно в хорошем качестве


    Вы не можете начинать темы
    Вы не можете отвечать на сообщения
    Вы не можете редактировать свои сообщения
    Вы не можете удалять свои сообщения
    Вы не можете голосовать в опросах
    Вы не можете прикреплять файлы к сообщениям
    Вы можете скачивать файлы