новый адрес
Мега распродажа FORZA HORIZON 4 ULTIMATE+ВСЕ DLC+ОНЛАЙН всего за 499р. 349 руб. (супер цена). Внимание количество ограничено!!!

iTunes

1+1

iTunes

мы

iTunes

1

iTunes

Чернобыль

iTunes

Ральф против интернета

Лицензия

ПШазам

Лицензия

Игра престолов

Лицензия

30
pack

ВАЖНО

!!Акция!!

Alien_RageХит недели

RePack

Resident Evil 21

ИГРА 18+

pack

RePack

Metro:Exodus

!!Акция!!

Alien_Rage

RePack

fifa19

RePack

Assassins Creed: Odyssey

RePack

NEED FOR SPEED™ PAYBACK

3 сезон

9 сезон

Бесстыжие 9 сезон

Все сериалы

все сериалы на PB.wtf

RePack

FAR CRY 5
Ребята, катастрофически не хватает 1900р. для оплаты серверов за Октябрь (всвязи с блокировками трафик упал в 3 раза), 1-2р., выручайте.
  

Любушка (Владимир Каплуновский) [1961, СССР, драма, SATRip от AVP Studio] pb.wtf

Любушка через торрент pb.wtf

Размер: 745 MB | Добавлен: 1 год 2 мес. назад | Торрент скачан:7 раз
Скачать  

17-09-2018 09:50 Любушка Скачать торрент  

Любушка
Страна: СССР
Производство: Мосфильм

Жанр: драма
Год выпуска: 1961
Продолжительность: 01:25:02

Перевод: Не требуется
Cубтитры: нет
Оригинальная аудиодорожка: русский

Режиссер: Владимир Каплуновский

В ролях:
Евгений Шутов, Олег Ефремов, Евгений Евстигнеев, Сергей Ромоданов, Владимир Заманский, Павел Тарасов, Лаврентий Масоха, Леонид Куравлёв, Виктор Коваль, Валентина Владимирова, Игорь Сретенский, Александр Шворин, Юрий Белов, Юрий Медведев, Георгий Гумилевский, Георгий Слабиняк, Раднэр Муратов, Александр Лебедев, Виктор Колпаков, Леонид Пирогов, Наталья Архангельская, Тамара Логинова, Нина Дорошина, Отар Коберидзе, Антонина Максимова, Юрий Киреев, Кира Канаева, Владимир Лебедев, Валентина Сперантова, Владимир Маренков...
Об актёрах подробней

Описание:
По повести Петра Ширяева "Внук Тальони".
Отступающие белые, отобрав у Никиты Лыкова (Евгений Шутов) жеребца, оставляют ему в насмешку измученную, худую кобылу. От ветеринара Никита узнаёт, что к нему попала знаменитая орловская кобыла Любушка. Когда-то она была в конюшне наездника Лутошкина (Олег Ефремов).

Исходник: DVB
Качество видео: SATRip
Формат видео: AVI

Видео: 704x320 (2,2:1), 25,000 кадров/сек, XviD ~ 1024 kbps avg, 0.182 bit/pixel
Аудио: 48 kHz, Dolby Digital AC3 2.0, 192 kbps

Раздача от:
Общее
Полное имя : Lyubushka.1961.SATRip_[New-team]_by_AVP_Studio.avi
Формат : AVI
Формат/Информация : Audio Video Interleave
Размер файла : 745 Мбайт
Продолжительность : 1 ч. 25 м.
Общий поток : 1226 Кбит/сек
Программа кодирования : VirtualDubMod 1.5.10.3 | www.virtualdub-fr.org || (build 2550/release)
Библиотека кодирования : VirtualDubMod build 2550/release

Видео
Идентификатор : 0
Формат : MPEG-4 Visual
Профиль формата : Advanced Simple@L5
Настройки формата : BVOP1 / Custom Matrix
Параметр BVOP формата : 1
Параметр QPel формата : Нет
Параметр GMC формата : Без точки перехода
Параметр матрицы формата : Выборочная
Идентификатор кодека : XVID
Идентификатор кодека/Подсказка : XviD
Продолжительность : 1 ч. 25 м.
Битрейт : 1024 Кбит/сек
Ширина : 704 пикселя
Высота : 320 пикселей
Соотношение сторон : 2,2:1
Частота кадров : 25,000 кадров/сек
Цветовое пространство : YUV
Субдискретизация насыщенности : 4:2:0
Битовая глубина : 8 бит
Тип развёртки : Прогрессивная
Метод сжатия : С потерями
Бит/(Пиксели*Кадры) : 0.182
Размер потока : 623 Мбайт (84%)
Библиотека кодирования : XviD 73

Аудио
Идентификатор : 1
Формат : AC-3
Формат/Информация : Audio Coding 3
Коммерческое название : Dolby Digital
Идентификатор кодека : 2000
Продолжительность : 1 ч. 25 м.
Вид битрейта : Постоянный
Битрейт : 192 Кбит/сек
Каналы : 2 канала
Channel layout : L R
Частота : 48,0 КГц
Частота кадров : 31,250 кадров/сек (1536 SPF)
Битовая глубина : 16 бит
Метод сжатия : С потерями
Размер потока : 117 Мбайт (16%)
Выравнивание : Разделение по промежуткам
Продолжительность промежутка : 40 мс. (1,00 видеокадр)
Время предзагрузки промежутка : 500 мс
pb.wtf



Скачать Любушка через торрент http://picplus.ru/img/1809/17/57a19ab2.png Скачать фильм Любушка через торрент бесплантно в хорошем качестве Описание:По повести Петра Ширяева "Внук Тальони".Отступающие белые, отобрав у Никиты Лыкова (Евгений Шутов) жеребца, оставляют ему в ... 5 10 1
Info! Золотая раздача, скачанное не засчитывается.
Торрент: Зарегистрирован [2018-09-17 09:50] · скачан: 7 раз
Статус: √ проверено
Размер: 745 MB
Как cкачать? Как скачать Любушка через торрент | qTorrent

% Раздел Тема Автор DL S | L
Кино СССР [ 1.09 GB ] Любушка [1961 СССР SATRip-AVC от AVP Studio] AVP Studio Скачать
1 | 0


>> Регистрируемся здесь <<






Отзывы и комментарии о схеме читаем и пишем здесь: ---> Отзывы и комментарии о схеме

Новые благодарочки в телеграм довольных пользователей:
скриншот   скриншот   скриншот   скриншот   скриншот
    Дорогой пользователь! Огромная просьба, поблагодарите релизера, оцените раздачу и оставьте свои комментарий, если Вы скачали Любушка через торрент бесплатно! Внесите свою лепту в развитие PiratBit!
    Комментировать посты могут только пользователи прошедшие не сложную регистрацию
    Показать сообщения:    

    Любушка через торрент
    Скачать бесплатно Любушка
    Любушка скачать торрент
    Любушка смотреть онлайн
    Cкачать фильм Любушка бесплатно
    Любушка скачать торрент в хорошем качестве
    Любушка смотреть онлайн бесплатно в хорошем качестве


    Вы не можете начинать темы
    Вы не можете отвечать на сообщения
    Вы не можете редактировать свои сообщения
    Вы не можете удалять свои сообщения
    Вы не можете голосовать в опросах
    Вы не можете прикреплять файлы к сообщениям
    Вы можете скачивать файлы