Ссылка на приватное зеркало всего за 1$. Внимание количество ограничено!!!

iTunes

iTunes

iTunes

1

iTunes

iTunes

iTunes

WEBRip

iTunes

30
pack

$ от Little Big

ВАЖНО

!!Акция!!

Alien_RageХит недели

RePack

Resident Evil 21

ИГРА 18+

pack

RePack

jed

!!Акция!!

Alien_Rage

RePack

fifa19

RePack

Assassins Creed: Odyssey

RePack

NEED FOR SPEED™ PAYBACK

4 сезон

9 сезон

Бесстыжие 9 сезон

Все сериалы

все сериалы на PB.wtf

RePack

FAR CRY 5
  

Иллюзия комфорта / Эмили / Emelie (Майкл Фелин) [2015, ужасы, триллер, BDRip 720p] MVO [Официальный звук] pb.wtf

Иллюзия комфорта через торрент pb.wtf

Раздают: 1 [ 0 KB/s ]
Размер: 4.1 GB | Добавлен: 1 год 10 мес. назад | Торрент скачан:49 раз
Скачать  

17-09-2018 09:59 Иллюзия комфорта Скачать торрент  

Иллюзия комфорта / Эмили / Emelie
Год выпуска: 2015
Страна: США
Жанр: ужасы, триллер
Продолжительность: 01:24:50
Перевод: Профессиональный многоголосый | Официальный звук
Субтитры: отсутствуют

Режиссер: Майкл Фелин

rating

В ролях:

Карли Адамс, Элиша Али, Тайлер Азер, Карл Бейли, Томас Баир, Джейсон Джон Биби, Крис Битем, Хезер Бенсон, Сара Болгер, Роберт Бозек

Описание:

После того как постоянная няня не смогла прийти, семья Томпсонов обращается к её подруге Анне, чтобы та посидела с детьми, пока родители празднуют годовщину. Поначалу Анна кажется детям настоящим чудом - девушка разрешает играть с тем, с чем им обычно играть запрещено. Но постепенно поведение няни становится всё более и более странным.

Качество: BDRip 720p
Формат: MKV

Видео: h.264,6 468 kb/s, 1280x534
Аудио: Русский (AC3, 2 ch, 448 Кбит/с)
скриншот  скриншот  скриншот  

Общее
Уникальный идентификатор : 241524847294873766615274241330610209408 (0xB5B3FE5AB9F626C5BC9D898F02BC8280)
Полное имя : D:\Emelie.2015.Pof.BDRip.72Op_KOSHARA.mkv
Формат : Matroska
Версия формата : Version 2
Размер файла : 4,10 Гбайт
Продолжительность : 1 ч. 24 м.
Режим общего битрейта : Переменный
Общий поток : 6918 Кбит/сек
Дата кодирования : UTC 2018-09-16 19:48:40
Программа кодирования : mkvmerge v8.3.0 ('Over the Horizon') 64bit
Библиотека кодирования : libebml v1.3.1 + libmatroska v1.4.2

Видео
Идентификатор : 1
Формат : AVC
Формат/Информация : Advanced Video Codec
Профиль формата : High@L4.1
Параметр CABAC формата : Да
Параметр RefFrames формата : 4 кадра
Идентификатор кодека : V_MPEG4/ISO/AVC
Продолжительность : 1 ч. 24 м.
Вид битрейта : Переменный
Битрейт : 6468 Кбит/сек
Максимальный битрейт : 7300 Кбит/сек
Ширина : 1280 пикселей
Высота : 534 пикселя
Соотношение сторон : 2,40:1
Режим частоты кадров : Постоянный
Частота кадров : 23,976 (24000/1001) кадра/сек
Стандарт вещания : Component
Цветовое пространство : YUV
Субдискретизация насыщенности : 4:2:0
Битовая глубина : 8 бит
Тип развёртки : Прогрессивная
Бит/(Пиксели*Кадры) : 0.386
Размер потока : 3,75 Гбайт (92%)
Default : Да
Forced : Нет
Цветовой диапазон : Limited
Основные цвета : BT.709
Характеристики трансфера : BT.709
Коэффициенты матрицы : BT.709

Аудио
Идентификатор : 2
Формат : AC-3
Формат/Информация : Audio Coding 3
Расширение режима : CM (complete main)
Параметр Endianness формата : Big
Идентификатор кодека : A_AC3
Продолжительность : 1 ч. 24 м.
Вид битрейта : Постоянный
Битрейт : 448 Кбит/сек
Каналы : 2 канала
Расположение каналов : Front: L R
Частота : 48,0 КГц
Частота кадров : 31,250 кадров/сек (1536 spf)
Метод сжатия : С потерями
Размер потока : 272 Мбайт (6%)
Default : Да
Forced : Нет

pb.wtf



Скачать Иллюзия комфорта через торрент http://img11.lostpic.net/2018/09/17/501cbb4826d28ee1c86f81f185ba3fb7.jpg Скачать фильм Иллюзия комфорта через торрент бесплантно в хорошем качестве Описание: После того как постоянная няня не смогла прийти, семья Томпсонов обращается к её подруге Анне, чтобы та посидела с детьми, пока ... 10 10 2
Торрент: Зарегистрирован [2018-09-17 09:59] · скачан: 49 раз
Статус: # сомнительно
Размер: 4.1 GB
Как cкачать? Как скачать Иллюзия комфорта через торрент | qTorrent

% Раздел Тема Автор DL S | L
T Фильмы (мультфильмы) cо спонсором показа (Новинки AVI/MKV) [ 1.37 GB ] Иллюзия комфорта / Эмили / Emelie [2015 HDRip] MVO [Официальный звук] bober100 Скачать
1 | 0

28-11-2019 20:33  

Отключить всю рекламу на сайте

    Дорогой пользователь! Огромная просьба, поблагодарите релизера, оцените раздачу и оставьте свои комментарий, если Вы скачали Иллюзия комфорта через торрент бесплатно! Внесите свою лепту в развитие PiratBit!
    Комментировать посты могут только пользователи прошедшие не сложную регистрацию
    Показать сообщения:    

    Иллюзия комфорта через торрент
    Скачать бесплатно Иллюзия комфорта
    Иллюзия комфорта скачать торрент
    Иллюзия комфорта смотреть онлайн
    Cкачать фильм Иллюзия комфорта бесплатно
    Иллюзия комфорта скачать торрент в хорошем качестве
    Иллюзия комфорта смотреть онлайн бесплатно в хорошем качестве


    Вы не можете начинать темы
    Вы не можете отвечать на сообщения
    Вы не можете редактировать свои сообщения
    Вы не можете удалять свои сообщения
    Вы не можете голосовать в опросах
    Вы не можете прикреплять файлы к сообщениям
    Вы можете скачивать файлы