Ссылка на приватное зеркало всего за 1$. Внимание количество ограничено!!!

iTunes

1+1

iTunes

мы

WEB-DL

1

iTunes

Чернобыль

iTunes

Ральф против интернета

Лицензия

ПШазам

Лицензия

Оно 2

Лицензия

30
pack

Вам бонус

ВАЖНО

!!Акция!!

Alien_RageХит недели

RePack

Resident Evil 21

ИГРА 18+

pack

RePack

jed

!!Акция!!

Alien_Rage

RePack

fifa19

RePack

Assassins Creed: Odyssey

RePack

NEED FOR SPEED™ PAYBACK

3 сезон

9 сезон

Бесстыжие 9 сезон

Все сериалы

все сериалы на PB.wtf

RePack

FAR CRY 5
Ребята, катастрофически не хватает 1900р. для оплаты серверов за Октябрь (всвязи с блокировками трафик упал в 3 раза), 1-2р., выручайте.
  

НЛО / UFO (Райан Эслинджер) [2018, фантастика, боевик, триллер, WEB-DLRip] MVO [iTunes] pb.wtf

НЛО через торрент pb.wtf

Раздают: 1 [ 0 KB/s ]
Размер: 1.38 GB | Добавлен: 1 год 2 мес. назад | Торрент скачан:678 раз
Скачать  

17-09-2018 11:38 НЛО Скачать торрент  

НЛО / UFO
Год выпуска: 2018
Страна: США
Жанр: фантастика, боевик, триллер
Продолжительность: 01:28:26
Перевод: Профессиональный (многоголосый, закадровый) | iTunes
Субтитры: нет

Режиссер: Райан Эслинджер

rating

В ролях:

Алекс Шарп, Элла Пернелл, Бенжамин Битти, Дэвид Стрэтэйрн, Дилан Кит Адамс, Дженнифер Алексис, Джиллиан Андерсон, Марк Энджел, Кэтлин Эшкрафт

Описание:

История одарённого студента, с детства увлечённого идеей о встрече с инопланетянами и поисками НЛО. Героя интересуют слухи о присутствии НЛО в нескольких аэропортах, сам же он привлекает внимание спецслужб.

Качество: WEB-DLRip
Формат: AVI

Видео: Xvid 73, 704x288, ~1645 kbps, 23,976 fps
Аудио#1: русский, AC3, 5.1 ch, 48 kHz, 384 kbps | iTunes
Аудио#2: английский, AC3, 2.0 ch, 48 kHz, 192 kbps | оригинал
скриншот   скриншот   скриншот   скриншот  

General
Полное имя : F:TorrentNLOWEBDLRip.avi
Формат : AVI
Формат/Информация : Audio Video Interleave
Профиль формата : OpenDML
Размер файла : 1.38 GiB
Продолжительность : 1 h 28 min
Общий поток : 2 240 kb/s
Программа кодирования : XviD4PSP 6.0 / 54.27.101

Video
Идентификатор : 0
Формат : MPEG-4 Visual
Профиль формата : Advanced Simple@L5
Настройки формата : BVOP2 / Custom Matrix
Параметр BVOP формата : 2
Параметр QPel формата : No
Параметр GMC формата : No warppoints
Параметр матрицы формата : Custom
Идентификатор кодека : XVID
Идентификатор кодека/Подсказка : XviD
Продолжительность : 1 h 28 min
Битрейт : 1 645 kb/s
Ширина : 704 pixels
Высота : 288 pixels
Соотношение сторон : 2.40:1
Частота кадров : 23.976 (23976/1000) FPS
Цветовое пространство : YUV
Субдискретизация насыщенности : 4:2:0
Битовая глубина : 8 bits
Тип развёртки : Progressive
Метод сжатия : Lossy
Бит/(Пиксели*Кадры) : 0.338
Размер потока : 1.02 GiB (73%)
Библиотека кодирования : XviD 73

Audio #1
Идентификатор : 1
Формат : AC-3
Формат/Информация : Audio Coding 3
Идентификатор кодека : 2000
Продолжительность : 1 h 28 min
Вид битрейта : Constant
Битрейт : 384 kb/s
Каналы : 6 channels
Расположение каналов : Front: L C R, Side: L R, LFE
Частота : 48.0 kHz
Частота кадров : 31.250 FPS (1536 SPF)
Битовая глубина : 16 bits
Метод сжатия : Lossy
Размер потока : 243 MiB (17%)
Выравнивание : Aligned on interleaves
Продолжительность промежутка : 32 ms (0.77 video frame)

Audio #2
Идентификатор : 2
Формат : AC-3
Формат/Информация : Audio Coding 3
Идентификатор кодека : 2000
Продолжительность : 1 h 28 min
Вид битрейта : Constant
Битрейт : 192 kb/s
Каналы : 2 channels
Расположение каналов : Front: L R
Частота : 48.0 kHz
Частота кадров : 31.250 FPS (1536 SPF)
Битовая глубина : 16 bits
Метод сжатия : Lossy
Размер потока : 121 MiB (9%)
Выравнивание : Aligned on interleaves
Продолжительность промежутка : 32 ms (0.77 video frame)

pb.wtf



Скачать НЛО через торрент https://c.radikal.ru/c39/1809/98/73dafe1eb667.jpg Скачать фильм НЛО через торрент бесплантно в хорошем качестве Описание: История одарённого студента, с детства увлечённого идеей о встрече с инопланетянами и поисками НЛО. Героя интересуют слухи о ... 9 10 17
Торрент: Зарегистрирован [2018-09-17 11:38] · скачан: 678 раз
Статус: √ проверено
Размер: 1.38 GB
Как cкачать? Как скачать НЛО через торрент | qTorrent

% Раздел Тема Автор DL S | L
Фильмы 2018 [DVDrip, WEB-DLRip, HDrip] (DUB, MVO) [ 709 MB ] НЛО / UFO [2018 WEB-DLRip многоголосый закадровый ""] coc900 Скачать
2 | 0
Фильмы (WEB-DL 720p, 1080p) [ 3.34 GB ] НЛО / UFO [2018 WEB-DL 1080p] MVO bober100 Скачать
2 | 0
Космос [ 9.51 GB ] Ангар-1: Папки НЛО / Hangar 1: The UFO Files [2014-2015 Документальный ТВ-сериал TVRip] Sub Rus кэп Скачать
1 | 0
Документальные фильмы и телепередачи [ 3.9 GB ] Дневники НЛО / UFO Diaries [01-13 из 13] (1995 Документальный познавательный WEB-DLRip] DVO кэп Скачать
1 | 0

28-11-2019 20:33  

Отключить всю рекламу на сайте

17-09-2018 14:15 НЛО Скачать торрент  

маудера не хватает!pb.wtf



17-09-2018 15:29 НЛО Скачать торрент  

BoberKC писал(а):

маудера не хватает!

что за Маудер? если про секретные материалы то там Дана Скалли и Фокс МАЛДЕР -а не МАУДЕРpb.wtf



17-09-2018 15:34 НЛО Скачать торрент  

phoboeus писал(а):

BoberKC писал(а):

маудера не хватает!

что за Маудер? если про секретные материалы то там Дана Скалли и Фокс МАЛДЕР -а не МАУДЕР

:))))))))))))))))))))))pb.wtf



17-09-2018 15:58 НЛО Скачать торрент  

astro5000 писал(а):

phoboeus писал(а):

BoberKC писал(а):

маудера не хватает!

что за Маудер? если про секретные материалы то там Дана Скалли и Фокс МАЛДЕР -а не МАУДЕР

:))))))))))))))))))))))

вообще то надо выговаривать все кроме "РРРррр")))))))pb.wtf



17-09-2018 16:10 НЛО Скачать торрент  

Фильм-то как маудоры? Стоит смотреть?pb.wtf



17-09-2018 19:22 НЛО Скачать торрент  

phoboeus писал(а):

BoberKC писал(а):

маудера не хватает!

что за Маудер? если про секретные материалы то там Дана Скалли и Фокс МАЛДЕР -а не МАУДЕР

+ахахаpb.wtf



17-09-2018 19:27 НЛО Скачать торрент  

не тратьте время это чушь полная а не фантастика, а боевика и триллера тут вообще минус 0 %pb.wtf



19-09-2018 10:43 НЛО Скачать торрент  

phoboeus писал(а):

BoberKC писал(а):

маудера не хватает!

что за Маудер? если про секретные материалы то там Дана Скалли и Фокс МАЛДЕР -а не МАУДЕР

С - сарказм pb.wtf



    Дорогой пользователь! Огромная просьба, поблагодарите релизера, оцените раздачу и оставьте свои комментарий, если Вы скачали НЛО через торрент бесплатно! Внесите свою лепту в развитие PiratBit!
    Комментировать посты могут только пользователи прошедшие не сложную регистрацию
    Показать сообщения:    

    НЛО через торрент
    Скачать бесплатно НЛО
    НЛО скачать торрент
    НЛО смотреть онлайн
    Cкачать фильм НЛО бесплатно
    НЛО скачать торрент в хорошем качестве
    НЛО смотреть онлайн бесплатно в хорошем качестве


    Вы не можете начинать темы
    Вы не можете отвечать на сообщения
    Вы не можете редактировать свои сообщения
    Вы не можете удалять свои сообщения
    Вы не можете голосовать в опросах
    Вы не можете прикреплять файлы к сообщениям
    Вы можете скачивать файлы