Anonymous, доброй ночи, присоединяйтесь к нам в Telegram!, здесь всегда актуальный адрес сайта, оперативная поддержка и многое другое!

>

5.6

iTunes

7.4

MVO

5.7

MVO

1

7.7

1 сезон

6.8

iTunes

7.3

1 сезон

13

6.7

1 сезон

8.3

RePack

30

ULTIMATE

pack

9.9

Лицензия

ВАЖНО

ИГРА 18+

pack

7.3

RePack

MK11

7.7

RePack

jed

7.8

RePack

fifa19

8.5

RePack

RDR2

RePack

NEED FOR SPEED™ PAYBACK

4 сезон

9 сезон

Бесстыжие 9 сезон

Все сериалы

все сериалы на PB.wtf

RePack

FAR CRY 5

Anonymous, доброй ночи, мы катастрофически не успеваем собрать деньги на оплату серверов, помогите нам пожалуйста 5,10,15р., для нас важна любая помощь . В качестве благодарности мы отключим Вам всю рекламу на сайте (укажите свой ник в строку Ваше имя)!

×
  
Magnet ссылка

СашаТаня / Сезон: 7 / Серии: 1-12 из 12 (Михаил Старчак) [2018, комедия, WEB-DL 1080p] pb.wtf

СашаТаня через торрент pb.wtf

Размер: 10.31 GB | Добавлен: 3 года назад | Торрент скачан:31 раз
Смотреть онлайн СашаТаня | Скачать    Ребята, помогите собрать деньги на оплату серверов!!!

17-09-2018 15:13 СашаТаня Скачать торрент  

СашаТаня
Год выпуска: 2018
Страна: Россия
Жанр: комедия
Продолжительность: ~ 00:24:00
Перевод: Не требуется
Субтитры: отсутствуют

Режиссер: Михаил Старчак



В ролях:

Андрей Гайдулян, Валентина Рубцова, Алексей Климушкин, Елена Бирюкова, Татьяна Орлова, Андрей Лебедев, Ксения Хаирова, Олег Новиков (IV), Сергей Рудзевич, Сергей Мурзин, Андрей Свиридов, Павел Кассинский, Виталий Гогунский, Арарат Кещян, Ёлка, Алексей Гаврилов, Лариса Баранова, Алина Кизиярова-Ланина, Екатерина Шукшина, Владимир Епифанцев, Светлана Тимофеева-Летуновская

Описание:

Сериал про молодую семью Сергеевых. После окончания института Саша и Таня вместе со своим маленьким сыном Алёшкой решили пожить самостоятельно и сняли квартиру в Южном Бутово. Райончик конечно не из лучших, но зато и цены на жилье тут доступные, ведь Саша не собирается пользоваться миллиардами своего папы. Но Сильвестр Андреевич не собирается так просто отставать от молодых и тем более от своего внука. Поэтому он поселился по соседству, только в просторной и роскошной квартире.

Качество: WEB-DL 1080p
Формат: MKV

Видео: MPEG-4 AVC, ~ 5 000 Кбит/с, 1920x1080
Аудио: Русский (AC3, 2 ch, 192 Кбит/с)
скриншот  скриншот  скриншот  

Общее
Уникальный идентификатор : 182410746598937367622019639306802223220 (0x893B082AF1FC1F119B859D0E06ECD874)
Полное имя : D:\SashaTanya.s07.2018.WEB-DL.(1080p).Getty\SashaTanya.s07.e01.2018.WEB-DL.(1080p).Getty.mkv
Формат : Matroska
Версия формата : Version 4 / Version 2
Размер файла : 852 Мбайт
Продолжительность : 22 м. 58 с.
Режим общего битрейта : Постоянный
Общий поток : 5185 Кбит/сек
Название фильма : SashaTanya.s07.e01.2018.WEB-DL.(1080p).Getty
Дата кодирования : UTC 2018-09-12 15:16:36
Программа кодирования : mkvmerge v7.8.0 ('River Man') 32bit built on Mar 27 2015 16:18:02
Библиотека кодирования : libebml v1.3.1 + libmatroska v1.4.2

Видео
Идентификатор : 1
Формат : AVC
Формат/Информация : Advanced Video Codec
Профиль формата : Baseline@L4
Параметр CABAC формата : Нет
Параметр RefFrames формата : 4 кадра
Параметр GOP формата : M=1, N=50
Идентификатор кодека : V_MPEG4/ISO/AVC
Продолжительность : 22 м. 58 с.
Вид битрейта : Постоянный
Битрейт : 5000 Кбит/сек
Ширина : 1920 пикселей
Высота : 1080 пикселей
Соотношение сторон : 16:9
Режим частоты кадров : Постоянный
Частота кадров : 25,000 кадров/сек
Стандарт вещания : PAL
Цветовое пространство : YUV
Субдискретизация насыщенности : 4:2:0
Битовая глубина : 8 бит
Тип развёртки : Прогрессивная
Бит/(Пиксели*Кадры) : 0.096
Размер потока : 820 Мбайт (96%)
Default : Да
Forced : Нет
Цветовой диапазон : Limited
Основные цвета : BT.709
Характеристики трансфера : BT.709
Коэффициенты матрицы : BT.709

Аудио
Идентификатор : 2
Формат : AC-3
Формат/Информация : Audio Coding 3
Расширение режима : CM (complete main)
Параметр Endianness формата : Big
Идентификатор кодека : A_AC3
Продолжительность : 22 м. 57 с.
Вид битрейта : Постоянный
Битрейт : 192 Кбит/сек
Каналы : 2 канала
Расположение каналов : Front: L R
Частота : 48,0 КГц
Частота кадров : 31,250 кадров/сек (1536 spf)
Метод сжатия : С потерями
Размер потока : 31,5 Мбайт (4%)
Default : Да
Forced : Нет

pb.wtf



Скачать СашаТаня через торрент http://img11.lostpic.net/2018/09/02/84bbb9ba708c2eff7e9b248d3509af4e.jpg Скачать, смотреть онлайн СашаТаня бесплантно в хорошем качестве Описание: Сериал про молодую семью Сергеевых. После окончания института Саша и Таня вместе со своим маленьким сыном Алёшкой решили пожить ... 10 10 3
Торрент: Зарегистрирован [2018-09-17 15:13] · скачан: 31 раз
Статус: √ проверено
Размер: 10.31 GB
Как cкачать? Как скачать СашаТаня через торрент | UTorrent

% Раздел Тема Автор DL S | L
TNT serials [ 7.53 GB ] СашаТаня / Сезон: 7 / Серии: 1-12 из 12 [2018 WEB-DL 720p] bober100 Скачать
1 | 0
TNT serials [ 3.99 GB ] СашаТаня / Сезон: 7 / Серии: 1-12 из 12 [2018 WEB-DLRip] bober100 Скачать
1 | 1
TNT serials [ 8.2 GB ] СашаТаня / Сезон: 7 / Серии: 1-12 из 12 [2018 HDTVRip 720p] bober100 Скачать
1 | 0
TNT serials [ 3.52 GB ] СашаТаня / Сезон: 7 / Серии: 1-12 из 12 [2018 HDTVRip] bober100 Скачать
1 | 0
TNT serials [ 4.29 GB ] СашаТаня / Сезон: 7 / Серии: 1-12 из 12 [2018 HDTVRip-AVC] bober100 Скачать
1 | 0
TNT serials [ 15.7 GB ] СашаТаня / Сезон: 7 / Серии: 1-12 из 12 [2018 HDTV 1080i] bober100 Скачать
1 | 0
TNT serials [ 3.62 GB ] СашаТаня / Сезон: 7 / Серии: 1-12 из 12 [2018 SATRip] bober100 Скачать
1 | 0

28-11-2019 20:33  

Отключить всю рекламу на сайте

    Дорогой пользователь! Огромная просьба, поблагодарите релизера, оцените раздачу и оставьте свои комментарий, если Вы скачали СашаТаня через торрент бесплатно!
    Комментировать посты могут только пользователи прошедшие не сложную регистрацию
    Показать сообщения:    

    СашаТаня через торрент
    Скачать бесплатно СашаТаня
    СашаТаня скачать торрент
    СашаТаня смотреть онлайн
    Cкачать фильм СашаТаня бесплатно
    СашаТаня скачать торрент в хорошем качестве
    СашаТаня смотреть онлайн бесплатно в хорошем качестве


    Вы не можете начинать темы
    Вы не можете отвечать на сообщения
    Вы не можете редактировать свои сообщения
    Вы не можете удалять свои сообщения
    Вы не можете голосовать в опросах
    Вы не можете прикреплять файлы к сообщениям
    Вы можете скачивать файлы