Всегда рабочее зеркало без VPN и Proxy просто перед .vidak.icu напиши любое слово или цифру, Пример http://49vu.vidak.icu

MVO

MVO

1 сезон

1

1 сезон

iTunes

1 сезон

13

1 сезон

Deluxe

pack

Рекомендуем

Repack

30

ВАЖНО

RePack

MK11

RePack

jed

RePack

fifa19

RePack

RDR2

RePack

NEED FOR SPEED™ PAYBACK

Кинопоиск HD

6 сезон

 Острые козырьки 6 сезон

Все сериалы

все сериалы на PB.wtf

RePack

FAR CRY 5
  
Magnet ссылка

Хан Соло: Звёздные войны. Истории / Solo: A Star Wars Story (Рон Ховард) [2018, фантастика, фэнтези, боевик, UHD BDRip 2160p] Дубляж [Лицензия] pb.wtf

Хан Соло: Звёздные войны. Истории через торрент pb.wtf

Размер: 15.75 GB | Добавлен: 3 года 10 мес. назад | Торрент скачан:455 раз
Смотреть онлайн Хан Соло: Звёздные войны. Истории | Скачать    Ребята, помогите собрать деньги на оплату серверов!!!

17-09-2018 16:51 Хан Соло: Звёздные войны. Истории Скачать торрент  

Хан Соло: Звёздные войны. Истории / Solo: A Star Wars Story«Never tell him the odds»
Год выпуска: 2018
Страна: США
Жанр: фантастика, фэнтези, боевик, приключения
Продолжительность: 02:14:46
Перевод: Дублированный | Лицензия
Субтитры: Русские (Форсированные), Русские, English.
Режиссер: Рон Ховард
В ролях:

Олден Эренрайк (Han Solo), Йонас Суотамо (Chewbacca), Вуди Харрельсон (Beckett), Эмилия Кларк (Qi'ra), Дональд Гловер (Lando Calrissian), Тэнди Ньютон (Val), Фиби Уоллер-Бридж (L3-37), Пол Беттани (Dryden Vos), Джон Фавро (Rio Durant, озвучка), Эрин Келлиман (Enfys Nest), Линда Хант (Lady Proxima, озвучка), Йен Кенни (Rebolt)
Описание:
Фильм расскажет о похождениях юного космического сорвиголовы Хана Соло и его верного напарника Чубакки и о том, как они стали самыми быстрыми пилотами и самыми хитрыми контрабандистами далёкой Галактики.
Рейтинг:

MPAA: PG-13 - Детям до 13 лет просмотр не желателен
Качество: UHD BDRip 2160p
Формат: MKV
Видео: HEVC, HDR, 10400 Кбит/с, 3840x1608, 23.976 кадр/с
Аудио 1: AC3, 3/2 ch, 640 kbps Дублированное_Лицензия_BD CEE
Аудио 2: TrueHD+Atmos 7.1 / 48 kHz / 4981 kbps / 24-bit English
Аудио 3: AC3, 3/2 ch, 640 kbps / 24-bit English
Навигация по главам: есть
Общее
Уникальный идентификатор : 228879643824700479331348712069892138510 (0xAC309DB03A3A8A5B92473210667BE60E)
Полное имя : G:\Solo.A.Star.Wars.Story.2018.UHD.BDRip.10bit.HEVC.HDR.4K.x265.Master5.mkv
Формат : Matroska
Версия формата : Version 4 / Version 2
Размер файла : 15,8 Гбайт
Продолжительность : 2 ч. 14 м.
Режим общего битрейта : Переменный
Общий поток : 16,7 Мбит/сек
Название фильма : Solo.A.Star.Wars.Story.2018.UHD.BDRip.10bit.HEVC.HDR.4K.x265.Master5
Дата кодирования : UTC 2018-09-17 15:23:43
Программа кодирования : mkvmerge v7.9.0 ('Birds') 64bit
Библиотека кодирования : libebml v1.3.1 + libmatroska v1.4.2
Обложка : Yes
Attachments : cover_land.jpg / small_cover.jpg / small_cover_land.jpg / cover.jpg / cover.jpg

Видео
Идентификатор : 1
Формат : HEVC
Формат/Информация : High Efficiency Video Coding
Коммерческое название : HDR10
Профиль формата : Main [email protected]@High
Идентификатор кодека : V_MPEGH/ISO/HEVC
Продолжительность : 2 ч. 14 м.
Битрейт : 10,4 Мбит/сек
Ширина : 3840 пикселей
Высота : 1608 пикселей
Соотношение сторон : 2,40:1
Режим частоты кадров : Постоянный
Частота кадров : 23,976 (24000/1001) кадра/сек
Цветовое пространство : YUV
Субдискретизация насыщенности : 4:2:0 (Type 2)
Битовая глубина : 10 бит
Бит/(Пиксели*Кадры) : 0.070
Размер потока : 9,79 Гбайт (62%)
Заголовок : Solo.A.Star.Wars.Story.2018.UHD.BDRip.10bit.HEVC.HDR.4K.x265.Master5
Библиотека кодирования : x265 2.8+54-79c76e42cb28:[Windows][GCC 7.3.1][64 bit] 10bit
Настройки программы : cpuid=1111039 / frame-threads=16 / numa-pools=24,24,24,24 / wpp / no-pmode / no-pme / no-psnr / no-ssim / log-level=2 / input-csp=1 / input-res=3840x1608 / interlace=0 / total-frames=0 / level-idc=51 / high-tier=1 / uhd-bd=0 / ref=3 / no-allow-non-conformance / repeat-headers / annexb / aud / hrd / info / hash=0 / no-temporal-layers / no-open-gop / min-keyint=1 / keyint=24 / gop-lookahead=0 / bframes=4 / b-adapt=2 / b-pyramid / bframe-bias=0 / rc-lookahead=25 / lookahead-slices=4 / scenecut=40 / radl=0 / no-intra-refresh / ctu=64 / min-cu-size=8 / no-rect / no-amp / max-tu-size=32 / tu-inter-depth=1 / tu-intra-depth=1 / limit-tu=0 / rdoq-level=0 / dynamic-rd=0.00 / no-ssim-rd / signhide / no-tskip / nr-intra=0 / nr-inter=0 / no-constrained-intra / strong-intra-smoothing / max-merge=2 / limit-refs=3 / no-limit-modes / me=1 / subme=2 / merange=57 / temporal-mvp / weightp / no-weightb / no-analyze-src-pics / deblock=0:0 / no-sao / no-sao-non-deblock / rd=3 / no-early-skip / rskip / no-fast-intra / no-tskip-fast / no-cu-lossless / no-b-intra / no-splitrd-skip / rdpenalty=0 / psy-rd=2.00 / psy-rdoq=0.00 / no-rd-refine / no-lossless / cbqpoffs=0 / crqpoffs=0 / rc=crf / crf=16.0 / qcomp=0.60 / qpstep=4 / stats-write=0 / stats-read=0 / vbv-maxrate=160000 / vbv-bufsize=160000 / vbv-init=0.9 / crf-max=0.0 / crf-min=0.0 / ipratio=1.40 / pbratio=1.30 / aq-mode=1 / aq-strength=1.00 / cutree / zone-count=0 / no-strict-cbr / qg-size=32 / no-rc-grain / qpmax=69 / qpmin=0 / no-const-vbv / sar=1 / overscan=0 / videoformat=5 / range=0 / colorprim=9 / transfer=16 / colormatrix=9 / chromaloc=1 / chromaloc-top=2 / chromaloc-bottom=2 / display-window=0 / master-display=G(13250,34500)B(7500,3000)R(34000,16000)WP(15635,16450)L(10000000,01) / max-cll=0,0 / min-luma=0 / max-luma=1023 / log2-max-poc-lsb=8 / vui-timing-info / vui-hrd-info / slices=1 / opt-qp-pps / opt-ref-list-length-pps / no-multi-pass-opt-rps / scenecut-bias=0.05 / no-opt-cu-delta-qp / no-aq-motion / hdr / hdr-opt / no-dhdr10-opt / no-idr-recovery-sei / analysis-reuse-level=5 / scale-factor=0 / refine-intra=0 / refine-inter=0 / refine-mv=0 / no-limit-sao / ctu-info=0 / no-lowpass-dct / refine-mv-type=0 / copy-pic=1 / max-ausize-factor=1.0 / no-dynamic-refine / no-single-sei
Default : Да
Forced : Нет
Цветовой диапазон : Limited
Основные цвета : BT.2020
Характеристики трансфера : PQ
Коэффициенты матрицы : BT.2020 non-constant
MasteringDisplay_ColorPrimaries : Display P3
MasteringDisplay_Luminance : min: 0.0001 cd/m2, max: 1000 cd/m2

Аудио #1
Идентификатор : 2
Формат : AC-3
Формат/Информация : Audio Coding 3
Идентификатор кодека : A_AC3
Продолжительность : 2 ч. 14 м.
Вид битрейта : Постоянный
Битрейт : 640 Кбит/сек
Каналы : 6 каналов
Расположение каналов : Front: L C R, Side: L R, LFE
Частота : 48,0 КГц
Частота кадров : 31,250 кадров/сек (1536 SPF)
Битовая глубина : 16 бит
Метод сжатия : С потерями
Размер потока : 617 Мбайт (4%)
Заголовок : BD CEE
Язык : Russian
ServiceKind/String : Complete Main
Default : Да
Forced : Да

Аудио #2
Идентификатор : 3
Формат : TrueHD
Профиль формата : TrueHD+Atmos / TrueHD
Идентификатор кодека : A_TRUEHD
Продолжительность : 2 ч. 14 м.
Вид битрейта : Переменный
Битрейт : 4981 Кбит/сек
Максимальный битрейт : 4647 Кбит/сек
Каналы : Object Based / 8 каналов
Расположение каналов : Object Based / Front: L C R, Side: L R, Back: L R, LFE
Частота : / 48,0 КГц
Частота кадров : 1200,000 кадров/сек (40 SPF)
Метод сжатия : Без потерь
Задержка видео : 33 мс.
Размер потока : 4,69 Гбайт (30%)
Язык : English
Default : Нет
Forced : Нет

Аудио #3
Идентификатор : 4
Формат : AC-3
Формат/Информация : Audio Coding 3
Идентификатор кодека : A_AC3
Продолжительность : 2 ч. 14 м.
Вид битрейта : Постоянный
Битрейт : 640 Кбит/сек
Каналы : 6 каналов
Расположение каналов : Front: L C R, Side: L R, LFE
Частота : 48,0 КГц
Частота кадров : 31,250 кадров/сек (1536 SPF)
Битовая глубина : 16 бит
Метод сжатия : С потерями
Задержка видео : 32 мс.
Размер потока : 617 Мбайт (4%)
Язык : English
ServiceKind/String : Complete Main
Default : Нет
Forced : Нет

Текст #1
Идентификатор : 5
Формат : UTF-8
Идентификатор кодека : S_TEXT/UTF8
Идентификатор кодека/Информация : UTF-8 Plain Text
Продолжительность : 2 ч. 6 м.
Битрейт : 83 бит/сек
ElementCount : 1829
Размер потока : 77,5 Кбайт (0%)
Заголовок : Full
Язык : Russian
Default : Нет
Forced : Нет

Текст #2
Идентификатор : 6
Формат : UTF-8
Идентификатор кодека : S_TEXT/UTF8
Идентификатор кодека/Информация : UTF-8 Plain Text
Продолжительность : 1 ч. 20 м.
Битрейт : 2 бит/сек
ElementCount : 28
Размер потока : 1,24 Кбайт (0%)
Заголовок : Forced
Язык : Russian
Default : Да
Forced : Да

Текст #3
Идентификатор : 7
Формат : UTF-8
Идентификатор кодека : S_TEXT/UTF8
Идентификатор кодека/Информация : UTF-8 Plain Text
Продолжительность : 2 ч. 5 м.
Битрейт : 56 бит/сек
ElementCount : 1958
Размер потока : 51,9 Кбайт (0%)
Заголовок : Full
Язык : English
Default : Нет
Forced : Нет

Текст #4
Идентификатор : 8
Формат : UTF-8
Идентификатор кодека : S_TEXT/UTF8
Идентификатор кодека/Информация : UTF-8 Plain Text
Продолжительность : 2 ч. 5 м.
Битрейт : 96 бит/сек
ElementCount : 2258
Размер потока : 89,4 Кбайт (0%)
Заголовок : SDH
Язык : Russian
Default : Нет
Forced : Нет

Текст #5
Идентификатор : 9
Формат : UTF-8
Идентификатор кодека : S_TEXT/UTF8
Идентификатор кодека/Информация : UTF-8 Plain Text
Продолжительность : 2 ч. 5 м.
Битрейт : 63 бит/сек
ElementCount : 2232
Размер потока : 58,5 Кбайт (0%)
Заголовок : SDH
Язык : English
Default : Нет
Forced : Нет

Текст #6
Идентификатор : 10
Формат : UTF-8
Идентификатор кодека : S_TEXT/UTF8
Идентификатор кодека/Информация : UTF-8 Plain Text
Продолжительность : 2 ч. 5 м.
Битрейт : 85 бит/сек
ElementCount : 2232
Размер потока : 78,8 Кбайт (0%)
Заголовок : SDH Colored
Язык : English
Default : Нет
Forced : Нет

Меню
00:00:00.000 : en:00:00:00.000
00:00:53.845 : en:00:00:53.845
00:02:10.213 : en:00:02:10.213
00:03:53.150 : en:00:03:53.150
00:06:00.485 : en:00:06:00.485
00:09:27.567 : en:00:09:27.567
00:13:16.045 : en:00:13:16.045
00:14:14.020 : en:00:14:14.020
00:16:12.263 : en:00:16:12.263
00:19:45.101 : en:00:19:45.101
00:22:43.821 : en:00:22:43.821
00:24:37.267 : en:00:24:37.267
00:27:00.035 : en:00:27:00.035
00:30:02.926 : en:00:30:02.926
00:32:54.681 : en:00:32:54.681
00:39:09.764 : en:00:39:09.764
00:41:59.225 : en:00:41:59.225
00:43:20.181 : en:00:43:20.181
00:44:32.128 : en:00:44:32.128
00:48:03.756 : en:00:48:03.756
00:51:58.324 : en:00:51:58.324
00:53:17.528 : en:00:53:17.528
00:57:23.523 : en:00:57:23.523
01:00:16.780 : en:01:00:16.780
01:02:40.882 : en:01:02:40.882
01:04:51.262 : en:01:04:51.262
01:05:29.509 : en:01:05:29.509
01:07:12.028 : en:01:07:12.028
01:08:05.915 : en:01:08:05.915
01:10:00.113 : en:01:10:00.113
01:12:44.193 : en:01:12:44.193
01:14:40.851 : en:01:14:40.851
01:18:30.873 : en:01:18:30.873
01:23:15.741 : en:01:23:15.741
01:26:32.646 : en:01:26:32.646
01:30:33.136 : en:01:30:33.136
01:35:19.672 : en:01:35:19.672
01:37:04.861 : en:01:37:04.861
01:38:52.802 : en:01:38:52.802
01:41:18.531 : en:01:41:18.531
01:43:02.676 : en:01:43:02.676
01:45:27.821 : en:01:45:27.821
01:46:32.177 : en:01:46:32.177
01:49:45.996 : en:01:49:45.996
01:53:33.890 : en:01:53:33.890
01:57:13.902 : en:01:57:13.902
01:58:55.128 : en:01:58:55.128
02:01:34.829 : en:02:01:34.829
02:03:20.893 : en:02:03:20.893
02:06:09.353 : en:02:06:09.353
pb.wtf



Скачать Хан Соло: Звёздные войны. Истории через торрент https://a.radikal.ru/a05/1809/ef/543ba997bc36.png Скачать, смотреть онлайн Хан Соло: Звёздные войны. Истории бесплантно в хорошем качестве Описание: Фильм расскажет о похождениях юного космического сорвиголовы Хана Соло и его верного напарника Чубакки и о том, как они стали ... 10 10 14
Info! Золотая раздача, скачанное не засчитывается.
Торрент: Зарегистрирован [2018-09-17 16:51] · скачан: 455 раз
Статус: √ проверено
Размер: 15.75 GB
Как cкачать? Как скачать Хан Соло: Звёздные войны. Истории через торрент | UTorrent

% Раздел Тема Автор DL S | L
Фильмы [HD 720p, 1080p] (Хороший звук DUB, MVO) [ 5.75 GB ] Хан Соло: Звёздные Войны. Истории / Solo: A Star Wars Story [2018 BDRip 720p] [Локализованная версия] DUB [] bober100 Скачать
2 | 0
Фильмы с авторской озвучкой [ 2.06 GB ] Хан Соло: Звёздные Войны. Истории / Solo: A Star Wars Story [2018 BDRip] [AVO] killermax2013 Скачать
1 | 0
Фильмы (Blu-ray, BD-Remux, HDDVD) [ 39.08 GB ] Хан Соло: Звёздные Войны. Истории / Solo: A Star Wars Story [2018 Blu-ray 1080p] [2D 3D] DUB [] bober100 Скачать
1 | 0
Фильмы (Blu-ray, BD-Remux, HDDVD) [ 34.84 GB ] Хан Соло: Звёздные войны. Истории / Solo: A Star Wars Story [2018 BDRemux 1080p] [] Локализованная версия sheker187 Скачать
1 | 0
Фильмы [HD 720p, 1080p] (Хороший звук DUB, MVO) [ 7.29 GB ] Хан Соло: Звёздные Войны. Истории / Solo: A Star Wars Story [2018 BDRip-HEVC 1080p ] DUB [] bober100 Скачать
4 | 0
Фильмы 2018 [DVDrip, WEB-DLRip, HDrip] (DUB, MVO) [ 1.46 GB ] Хан Соло: Звёздные войны. Истории / Solo: A Star Wars Story [2018 BDRip] - [] Twi7ter Скачать
1 | 0
Фильмы 2018 [DVDrip, WEB-DLRip, HDrip] (DUB, MVO) [ 2.82 GB ] Хан Соло: Звёздные войны. Истории / Solo: A Star Wars Story [2018 HDRip-AVC] - [] - ExKinoRay Enigma2010 Скачать
1 | 0

28-11-2019 20:33  

Отключить вcю реклaмy на сайте

    Дорогой пользователь! Огромная просьба, поблагодарите релизера, оцените раздачу и оставьте свои комментарий, если Вы скачали Хан Соло: Звёздные войны. Истории через торрент бесплатно!
    Комментировать посты могут только пользователи прошедшие не сложную регистрацию
    Показать сообщения:    

    Хан Соло: Звёздные войны. Истории через торрент
    Скачать бесплатно Хан Соло: Звёздные войны. Истории
    Хан Соло: Звёздные войны. Истории скачать торрент
    Хан Соло: Звёздные войны. Истории смотреть онлайн
    Cкачать фильм Хан Соло: Звёздные войны. Истории бесплатно
    Хан Соло: Звёздные войны. Истории скачать торрент в хорошем качестве
    Хан Соло: Звёздные войны. Истории смотреть онлайн бесплатно в хорошем качестве


    Вы не можете начинать темы
    Вы не можете отвечать на сообщения
    Вы не можете редактировать свои сообщения
    Вы не можете удалять свои сообщения
    Вы не можете голосовать в опросах
    Вы не можете прикреплять файлы к сообщениям
    Вы можете скачивать файлы