Marvel's Avengers Deluxe Edition (супер цена) 159р. Внимание количество ограничено!!!

2 сезон

iTunes

iTunes

1

iTunes

iTunes

iTunes

WEBRip

iTunes

30
pack

Новость дня

ВАЖНО

!!Акция!!

Alien_RageХит недели

RePack

Horizon Zero Dawn

ИГРА 18+

pack

RePack

jed

!!Акция!!

Alien_Rage

RePack

fifa19

RePack

Assassins Creed: Odyssey

RePack

NEED FOR SPEED™ PAYBACK

4 сезон

9 сезон

Бесстыжие 9 сезон

Все сериалы

все сериалы на PB.wtf

RePack

FAR CRY 5
  

Предупредительный выстрел / Warning Shot (Дастин Фербенкс) [2018, Триллер, драма, WEB-DL 720p] MVO ["Синема УС"] pb.wtf

Предупредительный выстрел через торрент pb.wtf

Размер: 2.96 GB | Добавлен: 2 года назад | Торрент скачан:26 раз
Скачать  

17-09-2018 20:35 Предупредительный выстрел Скачать торрент  

Предупредительный выстрел / Warning ShotГод выпуска: 2018
Страна: США
Жанр: Триллер, драма
Продолжительность: 01:29:38
Перевод: Любительский (многоголосый) | "Синема УС"
Субтитры: отсутствуют

Режиссер: Дастин Фербенкс

rating

В ролях:

Джеймс Эрл Джонс, Дэвид Спейд, Брюс Дерн, Тэмми Бланчард, Фрэнк Уэйли, Гильермо Диас, Ники Косс, Оната Април, Стив Истин, Дуайт Генри

Описание:

Мать-одиночка и ее маленькая дочка едва сводят концы с концами, но потом им по наследству достается семейный загородный дом. Но конкурент по бизнесу решает с помощью насилия забрать их права на воду, и ситуация выходит из-под контроля...

Качество: WEB-DL 720p
Формат: MKV

Видео: h.264,4 345 kb/s, 1280x534
Аудио#1: Русский, (AC3, 2 ch, 384 Кбит/с)
скриншот  скриншот  скриншот  

Общее
Уникальный идентификатор : 185297014325576542001040802997800653088 (0x8B66E8274A3D8C5AA8CD0DB383D1D120)
Полное имя : D:\Warning.Shot.2018.P.WEB-DL.72Op_KOSHARA.mkv
Формат : Matroska
Версия формата : Version 2
Размер файла : 2,96 Гбайт
Продолжительность : 1 ч. 29 м.
Режим общего битрейта : Переменный
Общий поток : 4731 Кбит/сек
Дата кодирования : UTC 2018-09-16 18:47:15
Программа кодирования : mkvmerge v8.3.0 ('Over the Horizon') 64bit
Библиотека кодирования : libebml v1.3.1 + libmatroska v1.4.2

Видео
Идентификатор : 1
Формат : AVC
Формат/Информация : Advanced Video Codec
Профиль формата : High@L4.1
Параметр CABAC формата : Да
Параметр RefFrames формата : 4 кадра
Идентификатор кодека : V_MPEG4/ISO/AVC
Продолжительность : 1 ч. 29 м.
Вид битрейта : Переменный
Битрейт : 4345 Кбит/сек
Максимальный битрейт : 5000 Кбит/сек
Ширина : 1280 пикселей
Высота : 534 пикселя
Соотношение сторон : 2,40:1
Режим частоты кадров : Постоянный
Частота кадров : 23,976 (24000/1001) кадра/сек
Стандарт вещания : Component
Цветовое пространство : YUV
Субдискретизация насыщенности : 4:2:0
Битовая глубина : 8 бит
Тип развёртки : Прогрессивная
Бит/(Пиксели*Кадры) : 0.260
Размер потока : 2,66 Гбайт (90%)
Default : Да
Forced : Нет
Цветовой диапазон : Limited
Основные цвета : BT.709
Характеристики трансфера : BT.709
Коэффициенты матрицы : BT.709

Аудио
Идентификатор : 2
Формат : AC-3
Формат/Информация : Audio Coding 3
Расширение режима : CM (complete main)
Параметр Endianness формата : Big
Идентификатор кодека : A_AC3
Продолжительность : 1 ч. 29 м.
Вид битрейта : Постоянный
Битрейт : 384 Кбит/сек
Каналы : 2 канала
Расположение каналов : Front: L R
Частота : 48,0 КГц
Частота кадров : 31,250 кадров/сек (1536 spf)
Метод сжатия : С потерями
Размер потока : 246 Мбайт (8%)
Default : Да
Forced : Нет

pb.wtf



Скачать Предупредительный выстрел через торрент http://img11.lostpic.net/2018/09/17/53ddc73205edf79a5d9530077e4a8118.jpg Скачать фильм Предупредительный выстрел через торрент бесплантно в хорошем качестве Описание: Мать-одиночка и ее маленькая дочка едва сводят концы с концами, но потом им по наследству достается семейный загородный дом. Но ... 10 10 2
Торрент: Зарегистрирован [2018-09-17 20:35] · скачан: 26 раз
Статус: T временная
Размер: 2.96 GB
Как cкачать? Как скачать Предупредительный выстрел через торрент | qTorrent

% Раздел Тема Автор DL S | L
T Фильмы (мультфильмы) cо спонсором показа (Новинки AVI/MKV) [ 1.37 GB ] Предупредительный выстрел / Warning Shot [2018 WEB-DLRip] MVO ["Синема УС"] bober100 Скачать
1 | 0

28-11-2019 20:33  

Отключить всю рекламу на сайте

    Дорогой пользователь! Огромная просьба, поблагодарите релизера, оцените раздачу и оставьте свои комментарий, если Вы скачали Предупредительный выстрел через торрент бесплатно! Внесите свою лепту в развитие PiratBit!
    Комментировать посты могут только пользователи прошедшие не сложную регистрацию
    Показать сообщения:    

    Предупредительный выстрел через торрент
    Скачать бесплатно Предупредительный выстрел
    Предупредительный выстрел скачать торрент
    Предупредительный выстрел смотреть онлайн
    Cкачать фильм Предупредительный выстрел бесплатно
    Предупредительный выстрел скачать торрент в хорошем качестве
    Предупредительный выстрел смотреть онлайн бесплатно в хорошем качестве


    Вы не можете начинать темы
    Вы не можете отвечать на сообщения
    Вы не можете редактировать свои сообщения
    Вы не можете удалять свои сообщения
    Вы не можете голосовать в опросах
    Вы не можете прикреплять файлы к сообщениям
    Вы можете скачивать файлы