Ссылка на приватное зеркало всего за 1$. Внимание количество ограничено!!!

OK

1+1

iTunes

мы

OK

1

WEB-DLRip

Джокер

Пифагор

Ведьмак / The Witcher сериал

iTunes

ПШазам

ОК

Оно 2

iTunes

30
pack

Вам бонус

ВАЖНО

!!Акция!!

Alien_RageХит недели

RePack

Resident Evil 21

ИГРА 18+

pack

RePack

jed

RePack

fifa19

RePack

Assassins Creed: Odyssey

RePack

NEED FOR SPEED™ PAYBACK

4 сезон

9 сезон

Бесстыжие 9 сезон

Все сериалы

все сериалы на PB.wtf

RePack

FAR CRY 5
  

Хан Соло: Звёздные Войны. Истории / Solo: A Star Wars Story (Рон Ховард) [2018, фантастика, фэнтези, боевик, приключения, BDRip-HEVC 1080p, (10bit)] DUB [Лицензия] pb.wtf

Хан Соло: Звёздные Войны. Истории через торрент pb.wtf

Раздают: 4 [ 0 KB/s ]
Размер: 7.29 GB | Добавлен: 1 год 4 мес. назад | Торрент скачан:1382 раза
Скачать  

17-09-2018 20:47 Хан Соло: Звёздные Войны. Истории Скачать торрент  

Хан Соло: Звёздные Войны. Истории / Solo: A Star Wars Story
Год выпуска: 2018
Страна: США
Жанр: фантастика, фэнтези, боевик, приключения
Продолжительность: 02:14:46
Перевод: Дублированный | Лицензия
Субтитры: Русские, Английские

Режиссер: Рон Ховард

rating

В ролях:

Олден Эренрайк (Han Solo), Йонас Суотамо (Chewbacca), Вуди Харрельсон (Beckett), Эмилия Кларк (Qi'ra), Дональд Гловер (Lando Calrissian), Тэнди Ньютон (Val), Фиби Уоллер-Бридж (L3-37), Пол Беттани (Dryden Vos), Джон Фавро (Rio Durant, озвучка), Эрин Келлиман (Enfys Nest), Линда Хант (Lady Proxima, озвучка), Йен Кенни (Rebolt)
Описание:

Фильм расскажет о похождениях юного космического сорвиголовы Хана Соло и его верного напарника Чубакки и о том, как они стали самыми быстрыми пилотами и самыми хитрыми контрабандистами далёкой Галактики.

Качество: BDRip-HEVC 1080p
Формат: MKV

Видео: HEVC, 5589 Кбит/с, 1920x804, 23.976 кадр/с, 10bit
Аудио#1: AC3, 6 ch, 640 kbps - Дублированное (Лицензия BD CEE)
Аудио#2: DTS 5.1 / 48 kHz / 1509 kbps / 24-bit - English
скриншот  скриншот  скриншот  

Общее
Уникальный идентификатор : 173343649323250074544787540953090065731 (0x8268C5C1E94737C3B45EED4343C18543)
Полное имя : D:\Solo.A.Star.Wars.Story.2018.BDRip.1080p.HEVC.10bit.Master5.mkv
Формат : Matroska
Версия формата : Version 4 / Version 2
Размер файла : 7,29 Гбайт
Продолжительность : 2 ч. 14 м.
Общий поток : 7742 Кбит/сек
Название фильма : Solo.A.Star.Wars.Story.2018.BDRip.1080p.HEVC.10bit.Master5
Дата кодирования : UTC 2018-09-16 16:07:55
Программа кодирования : mkvmerge v7.9.0 ('Birds') 64bit
Библиотека кодирования : libebml v1.3.1 + libmatroska v1.4.2
Обложка : Yes
Attachments : cover.jpg

Видео
Идентификатор : 1
Формат : HEVC
Формат/Информация : High Efficiency Video Coding
Профиль формата : Main 10@L5.1@High
Идентификатор кодека : V_MPEGH/ISO/HEVC
Продолжительность : 2 ч. 14 м.
Битрейт : 5589 Кбит/сек
Ширина : 1920 пикселей
Высота : 804 пикселя
Соотношение сторон : 2,40:1
Режим частоты кадров : Постоянный
Частота кадров : 23,976 (24000/1001) кадра/сек
Цветовое пространство : YUV
Субдискретизация насыщенности : 4:2:0
Битовая глубина : 10 бит
Бит/(Пиксели*Кадры) : 0.147
Размер потока : 5,12 Гбайт (70%)
Заголовок : Solo.A.Star.Wars.Story.2018.BDRip.1080p.HEVC.10bit.Master5
Библиотека кодирования : x265 2.8+19-bcdc610cf5f0:[Windows][GCC 7.3.0][64 bit] 10bit
Настройки программы : cpuid=1111039 / frame-threads=13 / numa-pools=12 / wpp / no-pmode / no-pme / no-psnr / no-ssim / log-level=3 / input-csp=1 / input-res=1920x804 / interlace=0 / total-frames=0 / level-idc=51 / high-tier=1 / uhd-bd=0 / ref=5 / allow-non-conformance / no-repeat-headers / annexb / no-aud / no-hrd / info / hash=0 / no-temporal-layers / open-gop / min-keyint=24 / keyint=240 / gop-lookahead=0 / bframes=8 / b-adapt=2 / b-pyramid / bframe-bias=0 / rc-lookahead=40 / lookahead-slices=5 / scenecut=40 / radl=0 / no-intra-refresh / ctu=64 / min-cu-size=8 / no-rect / no-amp / max-tu-size=32 / tu-inter-depth=1 / tu-intra-depth=1 / limit-tu=0 / rdoq-level=0 / dynamic-rd=0.00 / no-ssim-rd / signhide / no-tskip / nr-intra=0 / nr-inter=0 / no-constrained-intra / strong-intra-smoothing / max-merge=2 / limit-refs=3 / no-limit-modes / me=3 / subme=7 / merange=57 / temporal-mvp / weightp / no-weightb / no-analyze-src-pics / deblock=-3:-3 / no-sao / no-sao-non-deblock / rd=3 / no-early-skip / rskip / no-fast-intra / no-tskip-fast / no-cu-lossless / no-b-intra / no-splitrd-skip / rdpenalty=0 / psy-rd=2.00 / psy-rdoq=0.00 / no-rd-refine / no-lossless / cbqpoffs=0 / crqpoffs=0 / rc=crf / crf=17.0 / qcomp=0.70 / qpstep=4 / stats-write=0 / stats-read=0 / vbv-maxrate=160000 / vbv-bufsize=160000 / vbv-init=0.9 / crf-max=0.0 / crf-min=0.0 / ipratio=1.40 / pbratio=1.30 / aq-mode=1 / aq-strength=1.00 / cutree / zone-count=0 / no-strict-cbr / qg-size=32 / no-rc-grain / qpmax=69 / qpmin=0 / no-const-vbv / sar=1 / overscan=0 / videoformat=5 / range=0 / colorprim=1 / transfer=1 / colormatrix=1 / chromaloc=0 / display-window=0 / max-cll=0,0 / min-luma=0 / max-luma=1023 / log2-max-poc-lsb=8 / vui-timing-info / vui-hrd-info / slices=1 / no-opt-qp-pps / no-opt-ref-list-length-pps / no-multi-pass-opt-rps / scenecut-bias=0.05 / no-opt-cu-delta-qp / no-aq-motion / no-hdr / no-hdr-opt / no-dhdr10-opt / no-idr-recovery-sei / analysis-reuse-level=5 / scale-factor=0 / refine-intra=0 / refine-inter=0 / refine-mv=0 / no-limit-sao / ctu-info=0 / no-lowpass-dct / refine-mv-type=0 / copy-pic=1 / max-ausize-factor=1.0 / no-dynamic-refine / no-single-sei
Язык : English
Default : Да
Forced : Нет
Цветовой диапазон : Limited
Основные цвета : BT.709
Характеристики трансфера : BT.709
Коэффициенты матрицы : BT.709

Аудио #1
Идентификатор : 2
Формат : AC-3
Формат/Информация : Audio Coding 3
Расширение режима : CM (complete main)
Параметр Endianness формата : Big
Идентификатор кодека : A_AC3
Продолжительность : 2 ч. 14 м.
Вид битрейта : Постоянный
Битрейт : 640 Кбит/сек
Каналы : 6 каналов
Расположение каналов : Front: L C R, Side: L R, LFE
Частота : 48,0 КГц
Частота кадров : 31,250 кадров/сек (1536 spf)
Метод сжатия : С потерями
Размер потока : 617 Мбайт (8%)
Заголовок : BD CEE
Язык : Russian
Default : Да
Forced : Да

Аудио #2
Идентификатор : 3
Формат : DTS
Формат/Информация : Digital Theater Systems
Режим : 16
Параметр Endianness формата : Big
Идентификатор кодека : A_DTS
Продолжительность : 2 ч. 14 м.
Вид битрейта : Постоянный
Битрейт : 1509 Кбит/сек
Каналы : 6 каналов
Расположение каналов : Front: L C R, Side: L R, LFE
Частота : 48,0 КГц
Частота кадров : 93,750 кадра/сек (512 spf)
Битовая глубина : 24 бит
Метод сжатия : С потерями
Размер потока : 1,42 Гбайт (19%)
Язык : English
Default : Нет
Forced : Нет

Текст #1
Идентификатор : 4
Формат : UTF-8
Идентификатор кодека : S_TEXT/UTF8
Идентификатор кодека/Информация : UTF-8 Plain Text
Заголовок : Full
Язык : Russian
Default : Нет
Forced : Нет

Текст #2
Идентификатор : 5
Формат : UTF-8
Идентификатор кодека : S_TEXT/UTF8
Идентификатор кодека/Информация : UTF-8 Plain Text
Заголовок : Forced
Язык : Russian
Default : Да
Forced : Да

Текст #3
Идентификатор : 6
Формат : UTF-8
Идентификатор кодека : S_TEXT/UTF8
Идентификатор кодека/Информация : UTF-8 Plain Text
Заголовок : Full
Язык : English
Default : Нет
Forced : Нет

Текст #4
Идентификатор : 7
Формат : UTF-8
Идентификатор кодека : S_TEXT/UTF8
Идентификатор кодека/Информация : UTF-8 Plain Text
Заголовок : SDH
Язык : Russian
Default : Нет
Forced : Нет

Текст #5
Идентификатор : 8
Формат : UTF-8
Идентификатор кодека : S_TEXT/UTF8
Идентификатор кодека/Информация : UTF-8 Plain Text
Заголовок : SDH
Язык : English
Default : Нет
Forced : Нет

Текст #6
Идентификатор : 9
Формат : UTF-8
Идентификатор кодека : S_TEXT/UTF8
Идентификатор кодека/Информация : UTF-8 Plain Text
Заголовок : SDH Colored
Язык : English
Default : Нет
Forced : Нет

Меню
00:00:00.000 : en:00:00:00.000
00:00:53.845 : en:00:00:53.845
00:02:10.213 : en:00:02:10.213
00:03:53.150 : en:00:03:53.150
00:06:00.485 : en:00:06:00.485
00:09:27.567 : en:00:09:27.567
00:13:16.045 : en:00:13:16.045
00:14:14.020 : en:00:14:14.020
00:16:12.263 : en:00:16:12.263
00:19:45.101 : en:00:19:45.101
00:22:43.821 : en:00:22:43.821
00:24:37.267 : en:00:24:37.267
00:27:00.035 : en:00:27:00.035
00:30:02.926 : en:00:30:02.926
00:32:54.681 : en:00:32:54.681
00:39:09.764 : en:00:39:09.764
00:41:59.225 : en:00:41:59.225
00:43:20.181 : en:00:43:20.181
00:44:32.128 : en:00:44:32.128
00:48:03.756 : en:00:48:03.756
00:51:58.324 : en:00:51:58.324
00:53:17.528 : en:00:53:17.528
00:57:23.523 : en:00:57:23.523
01:00:16.780 : en:01:00:16.780
01:02:40.882 : en:01:02:40.882
01:04:51.262 : en:01:04:51.262
01:05:29.509 : en:01:05:29.509
01:07:12.028 : en:01:07:12.028
01:08:05.915 : en:01:08:05.915
01:10:00.113 : en:01:10:00.113
01:12:44.193 : en:01:12:44.193
01:14:40.851 : en:01:14:40.851
01:18:30.873 : en:01:18:30.873
01:23:15.741 : en:01:23:15.741
01:26:32.646 : en:01:26:32.646
01:30:33.136 : en:01:30:33.136
01:35:19.672 : en:01:35:19.672
01:37:04.861 : en:01:37:04.861
01:38:52.802 : en:01:38:52.802
01:41:18.531 : en:01:41:18.531
01:43:02.676 : en:01:43:02.676
01:45:27.821 : en:01:45:27.821
01:46:32.177 : en:01:46:32.177
01:49:45.996 : en:01:49:45.996
01:53:33.890 : en:01:53:33.890
01:57:13.902 : en:01:57:13.902
01:58:55.128 : en:01:58:55.128
02:01:34.829 : en:02:01:34.829
02:03:20.893 : en:02:03:20.893
02:06:09.353 : en:02:06:09.353

pb.wtf



Скачать Хан Соло: Звёздные Войны. Истории через торрент http://i99.fastpic.ru/big/2018/0913/c6/fa395d05a8ff9cf0439939e9fc3a62c6.jpg Скачать фильм Хан Соло: Звёздные Войны. Истории через торрент бесплантно в хорошем качестве Описание: Фильм расскажет о похождениях юного космического сорвиголовы Хана Соло и его верного напарника Чубакки и о том, как они стали ... 9.4 10 28
Info! Золотая раздача, скачанное не засчитывается.
Торрент: Зарегистрирован [2018-09-17 20:47] · скачан: 1 382 раз
Статус: √ проверено
Размер: 7.29 GB
Как cкачать? Как скачать Хан Соло: Звёздные Войны. Истории через торрент | qTorrent

% Раздел Тема Автор DL S | L
Фильмы (Blu-ray, BD-Remux, HDDVD) [ 39.08 GB ] Хан Соло: Звёздные Войны. Истории / Solo: A Star Wars Story [2018 Blu-ray 1080p] [2D 3D] DUB [] bober100 Скачать
2 | 0
3D Фильмы [ 9.69 GB ] Хан Соло: Звёздные Войны. Истории 3Д / Solo: A Star Wars Story 3D [2018 BDRip 1080p] [Half OverUnder / Вертикальная анаморфная стереопара] DUB [] bober100 Скачать
1 | 0
Фильмы (Blu-ray, BD-Remux, HDDVD) [ 38.63 GB ] Хан Соло: Звёздные Войны. Истории / Solo: A Star Wars Story [2018 BD Remux 1080p ] [2D 3D] DUB [] bober100 Скачать
1 | 0
Фильмы [HD 720p, 1080p] (Хороший звук DUB, MVO) [ 5.75 GB ] Хан Соло: Звёздные Войны. Истории / Solo: A Star Wars Story [2018 BDRip 720p] [Локализованная версия] DUB [] bober100 Скачать
3 | 0
Фильмы 2018 [DVDrip, WEB-DLRip, HDrip] (DUB, MVO) [ 2.74 GB ] Хан Соло: Звёздные Войны. Истории / Solo: A Star Wars Story [2018 BDRip-AVC] [Локализованная версия] DUB [] bober100 Скачать
1 | 0
Фильмы 2018 [DVDrip, WEB-DLRip, HDrip] (DUB, MVO) [ 795 MB ] Хан Соло: Звёздные Войны. Истории / Solo: A Star Wars Story [2018 BDRip] [Локализованная версия] DUB [ BD EUR] bober100 Скачать
1 | 0
Фильмы 2018 [DVDrip, WEB-DLRip, HDrip] (DUB, MVO) [ 1.46 GB ] Хан Соло: Звёздные Войны. Истории / Solo: A Star Wars Story [2018 BDRip-AVC] [Локализованная версия] DUB [] bober100 Скачать
1 | 0

28-11-2019 20:33  

Отключить всю рекламу на сайте

27-09-2018 15:00 Хан Соло: Звёздные Войны. Истории Скачать торрент  

Удивительно, но фильм зашел.pb.wtf



    Дорогой пользователь! Огромная просьба, поблагодарите релизера, оцените раздачу и оставьте свои комментарий, если Вы скачали Хан Соло: Звёздные Войны. Истории через торрент бесплатно! Внесите свою лепту в развитие PiratBit!
    Комментировать посты могут только пользователи прошедшие не сложную регистрацию
    Показать сообщения:    

    Хан Соло: Звёздные Войны. Истории через торрент
    Скачать бесплатно Хан Соло: Звёздные Войны. Истории
    Хан Соло: Звёздные Войны. Истории скачать торрент
    Хан Соло: Звёздные Войны. Истории смотреть онлайн
    Cкачать фильм Хан Соло: Звёздные Войны. Истории бесплатно
    Хан Соло: Звёздные Войны. Истории скачать торрент в хорошем качестве
    Хан Соло: Звёздные Войны. Истории смотреть онлайн бесплатно в хорошем качестве


    Вы не можете начинать темы
    Вы не можете отвечать на сообщения
    Вы не можете редактировать свои сообщения
    Вы не можете удалять свои сообщения
    Вы не можете голосовать в опросах
    Вы не можете прикреплять файлы к сообщениям
    Вы можете скачивать файлы