Ссылка на приватное зеркало нашего сайта всего за 1$. Внимание количество ограничено!!!

2 сезон

iTunes

1 сезон

1

iTunes

iTunes

iTunes

1 сезон

RePack

30

ИГРА 18+

pack

ВАЖНО

!!Акция!!

Alien_RageХит недели

RePack

MK11
pack

Забери бонус

RePack

jed

!!Акция!!

Alien_Rage

RePack

fifa19

RePack

Assassins Creed: Odyssey

RePack

NEED FOR SPEED™ PAYBACK

4 сезон

9 сезон

Бесстыжие 9 сезон

Все сериалы

все сериалы на PB.wtf

RePack

FAR CRY 5
  

Акварели / Сезон: 1 / Серии: (1-16 из 16) (Алексей Карелин) [2018 , мелодрама, HDTV 1080p] Не требуется [Русский] R.G.Generalfilm pb.wtf

Акварели через торрент pb.wtf

Размер: 41.71 GB | Добавлен: 2 года 1 мес. назад | Торрент скачан:5 раз
Скачать  

18-09-2018 02:14 Акварели Скачать торрент  





Год выпуска: 2018

Страна: Россия
Жанр: мелодрама
Продолжительность: 00:52:03
Перевод: Не требуется [Русский]
Режиссер: Алексей Карелин
В ролях:

Дарья Щербакова (Ася), Марина Могилевская (Регина), Илья Алексеев (Дима), Оксана Базилевич (Ирина), Дмитрий Егоров, Игорь Денисов, Петр Баранчеев, Олег Алмазов, Зоя Антонова, Марта Голубева, Андрей Новик, Александр Чевычелов
Описание:
Ася не помнит ничего из своего детства. Жизнь для нее началась в одиннадцать лет в маленькой бедной квартирке с мамой Ириной. Но случайная встреча и роман с Димой невольно погружает девушку в жизнь семьи Васильцовых - богатой и влиятельной, хранящей мрачные тайны. Ася не догадывается, что главной тайной оказывается она сама...

Качество: HDTV 1080p Запись с
Формат: MKV
Видео кодек: AVC
Аудио кодек: AC3
Видео: AVC, 1920x1080 (16:9), 7050 kbps, 25 fps, 0,136 bpp
Аудио: AC3 / 2.0 / 48 kHz / 192 kbps /
General
Unique ID : 221143070563518592751050857797812786490 (0xA65E9B2D3FDCBB88958E69BA2B0C953A)
Complete name : E:\Запись с тв\Akvareli 2018.HDTV 1080p.R.G.Generalfilm\Akvareli.s01.e01.2018.HDTV 1080p.by.White Smoke.R.G.Generalfilm.mkv
Format : Matroska
Format version : Version 4 / Version 2
File size : 2.63 GiB
Duration : 52 min
Overall bit rate mode : Constant
Overall bit rate : 7 224 kb/s
Movie name : Akvareli.2018.HDTV 1080p.by.White Smoke.R.G.Generalfilm.mkv
Encoded date : UTC 2018-09-18 00:38:50
Writing application : mkvmerge v6.8.0 ('Theme for Great Cities') 64bit built on Mar 2 2014 21:34:26
Writing library : libebml v1.3.0 + libmatroska v1.4.1
Cover : Yes
Attachments : cover.jpg

Video
ID : 1
Format : AVC
Format/Info : Advanced Video Codec
Format profile : High@L4.1
Format settings, CABAC : Yes
Format settings, ReFrames : 3 frames
Format settings, GOP : M=3, N=33
Codec ID : V_MPEG4/ISO/AVC
Duration : 52 min
Bit rate mode : Constant
Bit rate : 7 051 kb/s
Width : 1 920 pixels
Height : 1 080 pixels
Display aspect ratio : 16:9
Frame rate mode : Constant
Frame rate : 25.000 FPS
Standard : PAL
Color space : YUV
Chroma subsampling : 4:2:0
Bit depth : 8 bits
Scan type : Progressive
Bits/(Pixel*Frame) : 0.136
Stream size : 2.50 GiB (95%)
Default : Yes
Forced : No
Color range : Limited
Color primaries : BT.709
Transfer characteristics : BT.709
Matrix coefficients : BT.709

Audio
ID : 2
Format : AC-3
Format/Info : Audio Coding 3
Mode extension : CM (complete main)
Format settings, Endianness : Big
Codec ID : A_AC3
Duration : 52 min
Bit rate mode : Constant
Bit rate : 192 kb/s
Channel(s) : 2 channels
Channel positions : Front: L R
Sampling rate : 48.0 kHz
Frame rate : 31.250 FPS (1536 spf)
Compression mode : Lossy
Stream size : 71.5 MiB (3%)
Default : Yes
Forced : No
Внимание! Раздача ведётся путём добавления новых серий; при каждом добавлении создаётся новый торрент.
Чтобы начать докачку новой серии, пользователям необходимо сделать следующее:
1. Остановить скачивание;
2. Удалить старый торрент у себя из клиента (старые серии удалять не надо);
3. Скачать новый торрент и запустить его у себя в клиенте вместо старого, при этом указать клиенту путь в старую папку куда и должно происходить скачивание новых серий. Ваш клиент при этом должен произвести хеширование (проверку) старой папки и будет докачивать только те серии, которых у вас ещё нет. Старые серии при этом не удаляются, а продолжают раздаваться! Eсли вы уже удалили старые серии, то предотвратить повторную закачку старых серий можно, отжав галочку в соответствующих местах при запуске нового торрента.
pb.wtf



Скачать Акварели через торрент http://interhit.org/img/2018-05/27/95e0rpzgd7ieqwngygkarjw3v.gif Скачать фильм Акварели через торрент бесплантно в хорошем качестве Описание: Ася не помнит ничего из своего детства. Жизнь для нее началась в одиннадцать лет в маленькой бедной квартирке с мамой Ириной. Но ... 8 10 2
× Info от релизера! Добавлена 15-16 серия
Info! Золотая раздача, скачанное не засчитывается.
Торрент: Зарегистрирован [2018-09-28 11:14] · скачан: 5 раз
Статус: √ проверено
Размер: 41.71 GB
Как cкачать? Как скачать Акварели через торрент | qTorrent

28-11-2019 20:33  

Отключить всю рекламу на сайте

    Дорогой пользователь! Огромная просьба, поблагодарите релизера, оцените раздачу и оставьте свои комментарий, если Вы скачали Акварели через торрент бесплатно! Внесите свою лепту в развитие PiratBit!
    Комментировать посты могут только пользователи прошедшие не сложную регистрацию
    Показать сообщения:    

    Акварели через торрент
    Скачать бесплатно Акварели
    Акварели скачать торрент
    Акварели смотреть онлайн
    Cкачать фильм Акварели бесплатно
    Акварели скачать торрент в хорошем качестве
    Акварели смотреть онлайн бесплатно в хорошем качестве


    Вы не можете начинать темы
    Вы не можете отвечать на сообщения
    Вы не можете редактировать свои сообщения
    Вы не можете удалять свои сообщения
    Вы не можете голосовать в опросах
    Вы не можете прикреплять файлы к сообщениям
    Вы можете скачивать файлы