Ссылка на приватное зеркало всего за 1$. Внимание количество ограничено!!!

OK

1+1

iTunes

мы

OK

1

WEB-DLRip

Джокер

Пифагор

Ведьмак / The Witcher сериал

iTunes

ПШазам

ОК

Оно 2

iTunes

30
pack

Вам бонус

ВАЖНО

!!Акция!!

Alien_RageХит недели

RePack

Resident Evil 21

ИГРА 18+

pack

RePack

jed

RePack

fifa19

RePack

Assassins Creed: Odyssey

RePack

NEED FOR SPEED™ PAYBACK

4 сезон

9 сезон

Бесстыжие 9 сезон

Все сериалы

все сериалы на PB.wtf

RePack

FAR CRY 5
  

Вооружённый / Armed (Марио Ван Пиблз) [2018, Боевик, триллер, WEB-DL 720p] MVO ["Синема УС"] pb.wtf

Вооружённый через торрент pb.wtf

Размер: 4.24 GB | Добавлен: 1 год 4 мес. назад | Торрент скачан:66 раз
Скачать  

18-09-2018 12:24 Вооружённый Скачать торрент  

Вооружённый / Armed
Год выпуска: 2018
Страна: США
Жанр: Боевик, триллер
Продолжительность: 02:02:53
Перевод: Любительский (многоголосый) | "Синема УС"
Субтитры: отсутствуют

Режиссер: Марио Ван Пиблз

rating

В ролях:

Уильям Фихтнер, Райан Гузман, Марио Ван Пиблз, Шакира Баррера, Дайонн Уорвик, Мелвин Ван Пиблз, Лас Алонсо, Лэйн Гаррисон, Коламбус Шорт, Брэд Картер

Описание:

Бывший федеральный маршал, страдающий посттравматическим стрессовым расстройством, всеми силами пытается наладить свою жизнь после провала задания и увольнения из правоохранительных органов. Благодаря внезапной встрече со своим соратником, главный герой узнаёт, что симптомы ПТСР проявляются не только у него, но и у остальных членов отряда. Подозревая, что за всем этим может стоять правительство, старая команда вновь объединяется и берёт в руки оружие, потому что иначе ответов на волнующие их вопросы уже не добиться.

Качество: WEB-DL 720p
Формат: MKV

Видео: h.264,4 549 kb/s, 1280x532
Аудио#1: Русский, (AC3, 2 ch, 384 Кбит/с)
скриншот  скриншот  скриншот  

Общее
Уникальный идентификатор : 232236879078467200728068761481269393423 (0xAEB7322A7D19EA97A3977EC305AAB80F)
Полное имя : D:\Armed.2O18.P.WEB-DL.72Op_KOSHARA.mkv
Формат : Matroska
Версия формата : Version 2
Размер файла : 4,24 Гбайт
Продолжительность : 2 ч. 2 м.
Режим общего битрейта : Переменный
Общий поток : 4935 Кбит/сек
Дата кодирования : UTC 2018-09-17 17:52:36
Программа кодирования : mkvmerge v8.3.0 ('Over the Horizon') 64bit
Библиотека кодирования : libebml v1.3.1 + libmatroska v1.4.2

Видео
Идентификатор : 1
Формат : AVC
Формат/Информация : Advanced Video Codec
Профиль формата : High@L4.1
Параметр CABAC формата : Да
Параметр RefFrames формата : 4 кадра
Идентификатор кодека : V_MPEG4/ISO/AVC
Продолжительность : 2 ч. 2 м.
Вид битрейта : Переменный
Битрейт : 4549 Кбит/сек
Максимальный битрейт : 5000 Кбит/сек
Ширина : 1280 пикселей
Высота : 532 пикселя
Соотношение сторон : 2,40:1
Режим частоты кадров : Постоянный
Частота кадров : 23,976 (24000/1001) кадра/сек
Стандарт вещания : Component
Цветовое пространство : YUV
Субдискретизация насыщенности : 4:2:0
Битовая глубина : 8 бит
Тип развёртки : Прогрессивная
Бит/(Пиксели*Кадры) : 0.273
Размер потока : 3,82 Гбайт (90%)
Default : Да
Forced : Нет
Цветовой диапазон : Limited
Основные цвета : BT.709
Характеристики трансфера : BT.709
Коэффициенты матрицы : BT.709

Аудио
Идентификатор : 2
Формат : AC-3
Формат/Информация : Audio Coding 3
Расширение режима : CM (complete main)
Параметр Endianness формата : Big
Идентификатор кодека : A_AC3
Продолжительность : 2 ч. 2 м.
Вид битрейта : Постоянный
Битрейт : 384 Кбит/сек
Каналы : 2 канала
Расположение каналов : Front: L R
Частота : 48,0 КГц
Частота кадров : 31,250 кадров/сек (1536 spf)
Метод сжатия : С потерями
Размер потока : 338 Мбайт (8%)
Default : Да
Forced : Нет

pb.wtf



Скачать Вооружённый через торрент http://img11.lostpic.net/2018/09/18/543c7c44f42db43f27ddcd70a3cd25bf.jpg Скачать фильм Вооружённый через торрент бесплантно в хорошем качестве Описание: Бывший федеральный маршал, страдающий посттравматическим стрессовым расстройством, всеми силами пытается наладить свою жизнь ... 10 10 4
Торрент: Зарегистрирован [2018-09-18 12:24] · скачан: 66 раз
Статус: T временная
Размер: 4.24 GB
Как cкачать? Как скачать Вооружённый через торрент | qTorrent

% Раздел Тема Автор DL S | L
T Фильмы (мультфильмы) cо спонсором показа (Новинки AVI/MKV) [ 1.37 GB ] Вооружённый ответ / Armed Response [2017 HDRip] MVO [Официальный звук] bober100 Скачать
1 | 0
# Фильмы (мультфильмы) cо спонсором показа (Новинки AVI/MKV) [ 4.79 GB ] Вооружённый ответ / Armed Response [2017 BDRip 720p] MVO [Официальный звук] bober100 Скачать
1 | 0
# Фильмы (мультфильмы) cо спонсором показа (Новинки AVI/MKV) [ 8.66 GB ] Вооружённый ответ / Armed Response [2017 BDRip 1080p] MVO [Официальный звук] bober100 Скачать
1 | 0
T Фильмы (мультфильмы) cо спонсором показа (Новинки AVI/MKV) [ 2.05 GB ] Вооружённый / Armed [2018 WEB-DLRip] MVO ["Синема УС"] bober100 Скачать
1 | 0
T Фильмы (мультфильмы) cо спонсором показа (Новинки AVI/MKV) [ 1.37 GB ] Вооружённый / Armed [2018 WEB-DLRip] MVO ["Синема УС"] bober100 Скачать
1 | 0

28-11-2019 20:33  

Отключить всю рекламу на сайте

    Дорогой пользователь! Огромная просьба, поблагодарите релизера, оцените раздачу и оставьте свои комментарий, если Вы скачали Вооружённый через торрент бесплатно! Внесите свою лепту в развитие PiratBit!
    Комментировать посты могут только пользователи прошедшие не сложную регистрацию
    Показать сообщения:    

    Вооружённый через торрент
    Скачать бесплатно Вооружённый
    Вооружённый скачать торрент
    Вооружённый смотреть онлайн
    Cкачать фильм Вооружённый бесплатно
    Вооружённый скачать торрент в хорошем качестве
    Вооружённый смотреть онлайн бесплатно в хорошем качестве


    Вы не можете начинать темы
    Вы не можете отвечать на сообщения
    Вы не можете редактировать свои сообщения
    Вы не можете удалять свои сообщения
    Вы не можете голосовать в опросах
    Вы не можете прикреплять файлы к сообщениям
    Вы можете скачивать файлы