Мега распродажа FORZA HORIZON 4 ULTIMATE+ВСЕ DLC+ОНЛАЙН всего за 499р. 349 руб. (супер цена). Внимание количество ограничено!!!

Лицензия

30

iTunes

мы

iTunes

1

1 сезон

Чернобыль

1 сезон

Ральф против интернета

MVO

Покемон. Детектив Пикачу

8 сезон

Игра престолов

iTunes

1+1

ИГРА 18+

pack

ВАЖНО

!!Акция!!

Alien_RageХит недели

RePack

Resident Evil 21
pack

RePack

Metro:Exodus

!!Акция!!

Alien_Rage

RePack

fifa19

RePack

Assassins Creed: Odyssey

RePack

NEED FOR SPEED™ PAYBACK

3 сезон

9 сезон

Бесстыжие 9 сезон

Все сериалы

все сериалы на PB.wtf

RePack

FAR CRY 5
Ребята, катастрофически не хватает 2730р. для оплаты серверов за МАЙ (всвязи с блокировками трафик упал в 3 раза), 1-2р., выручайте.
  

Проклятье монахини / Curse of the Nun (Аарон Миртес) [2018, Ужасы, WEB-DL 720p] MVO ["Синема УС"] pb.wtf

Проклятье монахини через торрент pb.wtf

Раздают: 1 [ 0 KB/s ]
Размер: 2.81 GB | Добавлен: 8 мес. назад | Торрент скачан:506 раз
Скачать  

19-09-2018 04:09 Проклятье монахини Скачать торрент  

Проклятье монахини / Curse of the NunГод выпуска: 2018
Страна: США
Жанр: Ужасы
Продолжительность: 01:22:43
Перевод: Любительский (многоголосый) | "Синема УС"
Субтитры: отсутствуют

Режиссер: Аарон Миртес

rating

В ролях:

Аарон Миртес Лейси Хартсел, Джонатан Эверетт, Шеннон Хант, Кейт Килкойн, Аарон Миртес, Элис Рэвер, Майкл Т. Флинн, Брэд Белемджян

Описание:

Молодая девушка с непростым прошлым с радостью ждет переезда в прекрасный новый дом, но дух сошедшей с ума монахини не хочет отпускать ее из старого...

Качество: WEB-DL 720p
Формат: MKV

Видео: h.264,4 483 kb/s, 1280x528
Аудио#1: Русский, (AC3, 2 ch, 384 Кбит/с)
скриншот  скриншот  скриншот  

Общее
Уникальный идентификатор : 193498482647154456662378480145935469298 (0x919273C2E0FA9E95963FF729189D8AF2)
Полное имя : D:\Curse_of_the_Nun.2018.P.WEB-DL.72Op_KOSHARA.mkv
Формат : Matroska
Версия формата : Version 2
Размер файла : 2,81 Гбайт
Продолжительность : 1 ч. 22 м.
Режим общего битрейта : Переменный
Общий поток : 4869 Кбит/сек
Дата кодирования : UTC 2018-09-18 18:50:05
Программа кодирования : mkvmerge v8.3.0 ('Over the Horizon') 64bit
Библиотека кодирования : libebml v1.3.1 + libmatroska v1.4.2

Видео
Идентификатор : 1
Формат : AVC
Формат/Информация : Advanced Video Codec
Профиль формата : High@L4.1
Параметр CABAC формата : Да
Параметр RefFrames формата : 4 кадра
Идентификатор кодека : V_MPEG4/ISO/AVC
Продолжительность : 1 ч. 22 м.
Вид битрейта : Переменный
Битрейт : 4483 Кбит/сек
Максимальный битрейт : 5000 Кбит/сек
Ширина : 1280 пикселей
Высота : 528 пикселей
Соотношение сторон : 2,40:1
Режим частоты кадров : Постоянный
Частота кадров : 23,976 (24000/1001) кадра/сек
Стандарт вещания : Component
Цветовое пространство : YUV
Субдискретизация насыщенности : 4:2:0
Битовая глубина : 8 бит
Тип развёртки : Прогрессивная
Бит/(Пиксели*Кадры) : 0.271
Размер потока : 2,54 Гбайт (90%)
Default : Да
Forced : Нет
Цветовой диапазон : Limited
Основные цвета : BT.709
Характеристики трансфера : BT.709
Коэффициенты матрицы : BT.709

Аудио
Идентификатор : 2
Формат : AC-3
Формат/Информация : Audio Coding 3
Расширение режима : CM (complete main)
Параметр Endianness формата : Big
Идентификатор кодека : A_AC3
Продолжительность : 1 ч. 22 м.
Вид битрейта : Постоянный
Битрейт : 384 Кбит/сек
Каналы : 2 канала
Расположение каналов : Front: L R
Частота : 48,0 КГц
Частота кадров : 31,250 кадров/сек (1536 spf)
Метод сжатия : С потерями
Размер потока : 227 Мбайт (8%)
Default : Да
Forced : Нет

pb.wtf



Скачать Проклятье монахини через торрент http://img11.lostpic.net/2018/09/19/9a7bbce1c4c10313261c08dbdd046888.jpg Скачать фильм Проклятье монахини через торрент бесплантно в хорошем качестве Описание: Молодая девушка с непростым прошлым с радостью ждет переезда в прекрасный новый дом, но дух сошедшей с ума монахини не хочет ... 9.4 10 17
Торрент: Зарегистрирован [2018-09-19 04:09] · скачан: 506 раз
Статус: T временная
Размер: 2.81 GB
Как cкачать? Как скачать Проклятье монахини через торрент | qTorrent

% Раздел Тема Автор DL S | L
T Фильмы (мультфильмы) cо спонсором показа (Новинки AVI/MKV) [ 1.37 GB ] Проклятье монахини / Curse of the Nun [2018 WEB-DLRip] MVO ["Синема УС"] bober100 Скачать
2 | 0


>> Регистрируемся здесь <<






Отзывы и комментарии о схеме читаем и пишем здесь: ---> Отзывы и комментарии о схеме

Новые благодарочки в телеграм довольных пользователей:
скриншот   скриншот   скриншот   скриншот   скриншот

19-09-2018 11:01 Проклятье монахини Скачать торрент  

Asylum?pb.wtf



19-09-2018 13:53 Проклятье монахини Скачать торрент  

хзpb.wtf



23-09-2018 16:58 Проклятье монахини Скачать торрент  

Короче не тот фильм что рекламировали, хотя название такое же. Фильм так себе, на один разок под пивко.pb.wtf



23-09-2018 20:59 Проклятье монахини Скачать торрент  

Это жесть а не фильм. Не тратте свое время. И никакое пивко не спасет.pb.wtf



24-09-2018 15:48 Проклятье монахини Скачать торрент  

не тот фильм что выходит 20 сентября)pb.wtf



    Дорогой пользователь! Огромная просьба, поблагодарите релизера, оцените раздачу и оставьте свои комментарий, если Вы скачали Проклятье монахини через торрент бесплатно! Внесите свою лепту в развитие PiratBit!
    Комментировать посты могут только пользователи прошедшие не сложную регистрацию
    Показать сообщения:    

    Проклятье монахини через торрент
    Скачать бесплатно Проклятье монахини
    Проклятье монахини скачать торрент
    Проклятье монахини смотреть онлайн
    Cкачать фильм Проклятье монахини бесплатно
    Проклятье монахини скачать торрент в хорошем качестве
    Проклятье монахини смотреть онлайн бесплатно в хорошем качестве


    Вы не можете начинать темы
    Вы не можете отвечать на сообщения
    Вы не можете редактировать свои сообщения
    Вы не можете удалять свои сообщения
    Вы не можете голосовать в опросах
    Вы не можете прикреплять файлы к сообщениям
    Вы можете скачивать файлы