Ссылка на приватное зеркало нашего сайта всего за 1$. Внимание количество ограничено!!!

2 сезон

iTunes

1 сезон

1

2 сезон

2 сезон

iTunes

1 сезон

RePack

30

Новинка

ВАЖНО

ИГРА 18+

pack

RePack

MK11
pack

Забери бонус

RePack

jed

!!Акция!!

Alien_Rage

RePack

fifa19

RePack

Assassins Creed: Odyssey

RePack

NEED FOR SPEED™ PAYBACK

4 сезон

9 сезон

Бесстыжие 9 сезон

Все сериалы

все сериалы на PB.wtf

RePack

FAR CRY 5
  

Железный кулак / Iron Fist / Сезон: 2 / Серии: 1-9 из 10 (Джон Дал, Фэррен Блэкберн) [2018, Фантастика, боевик, криминал, приключения, WEBRip 2160p] 2xMVO [LostFilm, Baibako] pb.wtf

Железный кулак через торрент pb.wtf

Размер: 73.73 GB | Добавлен: 2 года 2 мес. назад | Торрент скачан:0 раз
Скачать  

19-09-2018 08:56 Железный кулак Скачать торрент  

Железный кулак / Iron Fist
Год выпуска: 2018
Страна: США
Жанр: Фантастика, боевик, криминал, приключения
Продолжительность: ~ 00:58:00
Перевод:

Профессиональный (многоголосый) |
Профессиональный (многоголосый) |

Субтитры: Русские, английские

Режиссер: Джон Дал, Фэррен Блэкберн, Ута Бризвитц

rating

В ролях:

Финн Джонс, Джессика Хенвик, Джессика Строуп, Дэвид Уэнэм, Розарио Доусон, Рамон Фернандес, Хосе Баэс, Людовик Куто, Тоби Николс, Крэйг Джерати, Доа Моа, Тихуана Рикс, По Шадоу, Йинка Адебойэку, Джастин Блейк, Никита Боголюбов, Николь Бонифачио, Альберто Бонилла, Эммануэль Браун

Описание:

Спустя годы после исчезновения Дэниэл Рэнд возвращается в Нью-Йорк и начинает борьбу с криминалом, используя свои невообразимые навыки кунг-фу и способность вызывать силу Железного кулака.

Качество: WEBRip 2160p
Формат: MKV

Видео: HEVC HDR, ~ 20.5 Mбит/с, 3840x2160, 23.976 кадр/с
Аудио#1: Русский (AC3, 2 ch, 384 Кбит/с) / Профессиональный многоголосый (LostFilm)
Аудио#2: Русский (AC3, 6 ch, 640 Кбит/с) / Профессиональный многоголосый (Baibako)
Аудио#3: Английский (E-AC3, 6 ch, 640 Кбит/с)
скриншот  скриншот  скриншот  скриншот  скриншот  

General
Unique ID : 328662232084370797916666668428269274752 (0xF7420B1E9FE32EAA1E5B4F551DE54680)
Complete name : C:UsersPublicVideosSample VideosFilmyIron.Fist.S02.2018.WEBRip.2160p.HDR.MediaClubIron.Fist.S02E02.2018.NF.WEBRip.2160p.HDR.MediaClub.mkv
Format : Matroska
Format version : Version 4
File size : 7.92 GiB
Duration : 53 min 26 s
Overall bit rate : 21.2 Mb/s
Encoded date : UTC 2018-09-14 09:13:19
Writing application : mkvmerge v25.0.0 ('Prog Noir') 64-bit
Writing library : libebml v1.3.6 + libmatroska v1.4.9
Cover : Yes
Attachments : cover.jpg

Video
ID : 1
Format : HEVC
Format/Info : High Efficiency Video Coding
Commercial name : HDR10
Format profile : Main 10@L5@Main
Codec ID : V_MPEGH/ISO/HEVC
Duration : 51 min 43 s
Bit rate : 20.4 Mb/s
Width : 3 840 pixels
Height : 2 160 pixels
Display aspect ratio : 16:9
Frame rate mode : Constant
Frame rate : 23.976 (24000/1001) FPS
Color space : YUV
Chroma subsampling : 4:2:0
Bit depth : 10 bits
Bits/(Pixel*Frame) : 0.103
Stream size : 7.37 GiB (93%)
Title : WEBRip.2160.HDR by Silverok
Writing library : x265 2.8+66-88ee12651e30:[Windows][MSVC 1915][64 bit] 10bit
Encoding settings : cpuid=1111039 / frame-threads=4 / numa-pools=0,28 / wpp / no-pmode / no-pme / no-psnr / no-ssim / log-level=2 / input-csp=1 / input-res=3840x2160 / interlace=0 / total-frames=0 / level-idc=0 / high-tier=1 / uhd-bd=0 / ref=5 / no-allow-non-conformance / repeat-headers / annexb / no-aud / no-hrd / info / hash=0 / no-temporal-layers / open-gop / min-keyint=23 / keyint=250 / gop-lookahead=0 / bframes=8 / b-adapt=2 / b-pyramid / bframe-bias=0 / rc-lookahead=40 / lookahead-slices=0 / scenecut=40 / radl=0 / no-intra-refresh / ctu=64 / min-cu-size=8 / no-rect / no-amp / max-tu-size=32 / tu-inter-depth=3 / tu-intra-depth=3 / limit-tu=4 / rdoq-level=1 / dynamic-rd=0.00 / no-ssim-rd / signhide / no-tskip / nr-intra=0 / nr-inter=0 / no-constrained-intra / strong-intra-smoothing / max-merge=4 / limit-refs=1 / limit-modes / me=3 / subme=4 / merange=57 / temporal-mvp / weightp / weightb / no-analyze-src-pics / deblock=0:0 / no-sao / no-sao-non-deblock / rd=6 / no-early-skip / rskip / no-fast-intra / no-tskip-fast / no-cu-lossless / b-intra / no-splitrd-skip / rdpenalty=0 / psy-rd=2.00 / psy-rdoq=4.00 / no-rd-refine / no-lossless / cbqpoffs=0 / crqpoffs=0 / rc=crf / crf=15.0 / qcomp=0.60 / qpstep=4 / stats-write=0 / stats-read=0 / ipratio=1.40 / pbratio=1.30 / aq-mode=1 / aq-strength=1.00 / cutree / zone-count=0 / no-strict-cbr / qg-size=32 / no-rc-grain / qpmax=69 / qpmin=0 / no-const-vbv / sar=0 / overscan=0 / videoformat=5 / range=0 / colorprim=9 / transfer=16 / colormatrix=9 / chromaloc=0 / display-window=0 / master-display=G(13250,34500)B(7500,3000)R(34000,16000)WP(15635,16450)L(40000000,50) / max-cll=10000,824 / min-luma=0 / max-luma=1023 / log2-max-poc-lsb=8 / vui-timing-info / vui-hrd-info / slices=1 / no-opt-qp-pps / no-opt-ref-list-length-pps / no-multi-pass-opt-rps / scenecut-bias=0.05 / no-opt-cu-delta-qp / no-aq-motion / hdr / hdr-opt / no-dhdr10-opt / no-idr-recovery-sei / analysis-reuse-level=5 / scale-factor=0 / refine-intra=0 / refine-inter=0 / refine-mv=0 / no-limit-sao / ctu-info=0 / no-lowpass-dct / refine-mv-type=0 / copy-pic=1 / max-ausize-factor=1.0 / no-dynamic-refine / no-single-sei
Default : Yes
Forced : No
Color range : Limited
Color primaries : BT.2020
Transfer characteristics : PQ
Matrix coefficients : BT.2020 non-constant
Mastering display color primaries : Display P3
Mastering display luminance : min: 0.0050 cd/m2, max: 4000 cd/m2
Maximum Content Light Level : 10000 cd/m2
Maximum Frame-Average Light Level : 824 cd/m2

Audio #1
ID : 2
Format : AC-3
Format/Info : Audio Coding 3
Commercial name : Dolby Digital
Codec ID : A_AC3
Duration : 52 min 50 s
Bit rate mode : Constant
Bit rate : 384 kb/s
Channel(s) : 2 channels
Channel layout : L R
Sampling rate : 48.0 kHz
Frame rate : 31.250 FPS (1536 SPF)
Bit depth : 16 bits
Compression mode : Lossy
Stream size : 145 MiB (2%)
Title : Профессиональный многоголосый (LostFilm)
Language : Russian
Service kind : Complete Main
Default : Yes
Forced : No

Audio #2
ID : 3
Format : AC-3
Format/Info : Audio Coding 3
Commercial name : Dolby Digital
Codec ID : A_AC3
Duration : 53 min 26 s
Bit rate mode : Constant
Bit rate : 640 kb/s
Channel(s) : 6 channels
Channel layout : L R C LFE Ls Rs
Sampling rate : 48.0 kHz
Frame rate : 31.250 FPS (1536 SPF)
Bit depth : 16 bits
Compression mode : Lossy
Stream size : 245 MiB (3%)
Title : Профессиональный многоголосый (Baibako)
Language : Russian
Service kind : Complete Main
Default : No
Forced : No

Audio #3
ID : 4
Format : E-AC-3 JOC
Format/Info : Enhanced AC-3 with Joint Object Coding
Commercial name : Dolby Digital Plus with Dolby Atmos
Codec ID : A_EAC3
Duration : 52 min 41 s
Bit rate mode : Constant
Bit rate : 448 kb/s
Channel(s) : 6 channels
Channel layout : L R C LFE Ls Rs
Sampling rate : 48.0 kHz
Frame rate : 31.250 FPS (1536 SPF)
Compression mode : Lossy
Stream size : 169 MiB (2%)
Language : English
Service kind : Complete Main
Default : No
Forced : No
Complexity index : 16
Number of dynamic objects : 15
Bed channel count : 1 channel
Bed channel configuration : LFE

Text
ID : 5
Format : UTF-8
Codec ID : S_TEXT/UTF8
Codec ID/Info : UTF-8 Plain Text
Duration : 50 min 26 s
Bit rate : 61 b/s
Count of elements : 659
Stream size : 22.7 KiB (0%)
Language : English
Default : Yes
Forced : No

Когда раздача ведётся путём добавления новых серий, при каждом добавлении создётся новый торрент. Чтобы начать докачку новой серии, пользователям необходимо сделать следующее:
(1) остановить скачивание,
(2) удалить старый торрент у себя из клиента (старые серии удалять не надо),
(3) скачать новый торрент и запустить его у себя в клиенте вместо старого, при этом указать клиенту путь в старую папку, куда и должно происходить скачивание новых серий.
Ваш клиент при этом должен произвести хеширование (проверку) старой папки (если не производит сам - помогите ему сделать это), и будет докачивать только те серии, которых у вас ещё нет. Старые серии при этом не удаляются, а продолжают раздаваться!
Eсли вы уже удалили старые серии, то предотвратить повторную закачку старых серий можно, отжав галочку в соответсвующих местах при запуске нового торрента. По возможности, желательно не удалять старые серии как можно дольше, чтобы релизер не столько продолжал раздавать старые серии, а смог сконцентрироваться на новых.
pb.wtf



Скачать Железный кулак через торрент http://img11.lostpic.net/2018/09/14/f6a3a55c6683338e387d61c4ec29afec.jpg Скачать фильм Железный кулак через торрент бесплантно в хорошем качестве Описание: Спустя годы после исчезновения Дэниэл Рэнд возвращается в Нью-Йорк и начинает борьбу с криминалом, используя свои невообразимые ... 10 10 2
Торрент: Зарегистрирован [2018-09-28 04:53] · скачан: 0 раз
Статус: √ проверено
Размер: 73.73 GB
Как cкачать? Как скачать Железный кулак через торрент | qTorrent

28-11-2019 20:33  

Отключить всю рекламу на сайте

    Дорогой пользователь! Огромная просьба, поблагодарите релизера, оцените раздачу и оставьте свои комментарий, если Вы скачали Железный кулак через торрент бесплатно! Внесите свою лепту в развитие PiratBit!
    Комментировать посты могут только пользователи прошедшие не сложную регистрацию
    Показать сообщения:    

    Железный кулак через торрент
    Скачать бесплатно Железный кулак
    Железный кулак скачать торрент
    Железный кулак смотреть онлайн
    Cкачать фильм Железный кулак бесплатно
    Железный кулак скачать торрент в хорошем качестве
    Железный кулак смотреть онлайн бесплатно в хорошем качестве


    Вы не можете начинать темы
    Вы не можете отвечать на сообщения
    Вы не можете редактировать свои сообщения
    Вы не можете удалять свои сообщения
    Вы не можете голосовать в опросах
    Вы не можете прикреплять файлы к сообщениям
    Вы можете скачивать файлы