Ссылка на приватное зеркало нашего сайта всего за 1$. Внимание количество ограничено!!!

2 сезон

iTunes

iTunes

1

iTunes

iTunes

iTunes

WEBRip

iTunes

30
pack

Вам бонус

ВАЖНО

!!Акция!!

Alien_RageХит недели

RePack

Horizon Zero Dawn

ИГРА 18+

pack

RePack

jed

!!Акция!!

Alien_Rage

RePack

fifa19

RePack

Assassins Creed: Odyssey

RePack

NEED FOR SPEED™ PAYBACK

4 сезон

9 сезон

Бесстыжие 9 сезон

Все сериалы

все сериалы на PB.wtf

RePack

FAR CRY 5
  

Чемпионы / Champions / Campeones (Хавьер Фессер) [2018, Драма, комедия, спорт, BDRip 720p] MVO ["Синема УС"] pb.wtf

Чемпионы через торрент pb.wtf

Размер: 6.47 GB | Добавлен: 2 года назад | Торрент скачан:79 раз
Скачать  

19-09-2018 11:09 Чемпионы Скачать торрент  

Чемпионы / Champions / CampeonesГод выпуска: 2018
Страна: Испания, Мексика
Жанр: Драма, комедия, спорт
Продолжительность: 02:06:56
Перевод: Любительский (многоголосый) | "Синема УС"
Субтитры: отсутствуют

Режиссер: Хавьер Фессер

rating

В ролях:

Хавьер Гутьеррес, Хуан Франсиско Маргальо, Хосе де Луна, Серхио Олмо, Хесус Видал, Глория Рамос, Альберто Нието Феррандес, Хулио Фернандес, Хесус Лаго

Описание:

Марко Монтеса, тренера известной баскетбольной команды за вождение автомобиля в нетрезвом виде лишают прав и приговаривают к девяноста дням общественных работ. Отбывать наказание главному герою предстоит у руля баскетбольной команды Ассоциации "Друзья", состоящей из ребят с умственной отсталостью.

Качество: BDRip 720p
Формат: AVI

Видео: h.264,6 851 kb/s, 1280x536
Аудио: Русский (AC3, 2 ch, 448 Кбит/с)
скриншот  скриншот  скриншот  

Общее
Уникальный идентификатор : 190077903924324789223951225034940875471 (0x8EFFAC35A2D685A79B8D0535FC5802CF)
Полное имя : D:\Champions.2O18.P.BDRip.72Op_KOSHARA.mkv
Формат : Matroska
Версия формата : Version 2
Размер файла : 6,47 Гбайт
Продолжительность : 2 ч. 6 м.
Режим общего битрейта : Переменный
Общий поток : 7301 Кбит/сек
Дата кодирования : UTC 2018-09-18 19:56:15
Программа кодирования : mkvmerge v8.3.0 ('Over the Horizon') 64bit
Библиотека кодирования : libebml v1.3.1 + libmatroska v1.4.2

Видео
Идентификатор : 1
Формат : AVC
Формат/Информация : Advanced Video Codec
Профиль формата : High@L4.1
Параметр CABAC формата : Да
Параметр RefFrames формата : 4 кадра
Идентификатор кодека : V_MPEG4/ISO/AVC
Продолжительность : 2 ч. 6 м.
Вид битрейта : Переменный
Битрейт : 6851 Кбит/сек
Максимальный битрейт : 7500 Кбит/сек
Ширина : 1280 пикселей
Высота : 536 пикселей
Соотношение сторон : 2,40:1
Режим частоты кадров : Постоянный
Частота кадров : 23,976 (24000/1001) кадра/сек
Стандарт вещания : Component
Цветовое пространство : YUV
Субдискретизация насыщенности : 4:2:0
Битовая глубина : 8 бит
Тип развёртки : Прогрессивная
Бит/(Пиксели*Кадры) : 0.408
Размер потока : 5,95 Гбайт (92%)
Default : Да
Forced : Нет
Цветовой диапазон : Limited
Основные цвета : BT.709
Характеристики трансфера : BT.709
Коэффициенты матрицы : BT.709

Аудио
Идентификатор : 2
Формат : AC-3
Формат/Информация : Audio Coding 3
Расширение режима : CM (complete main)
Параметр Endianness формата : Big
Идентификатор кодека : A_AC3
Продолжительность : 2 ч. 6 м.
Вид битрейта : Постоянный
Битрейт : 448 Кбит/сек
Каналы : 2 канала
Расположение каналов : Front: L R
Частота : 48,0 КГц
Частота кадров : 31,250 кадров/сек (1536 spf)
Метод сжатия : С потерями
Размер потока : 407 Мбайт (6%)
Default : Да
Forced : Нет

pb.wtf



Скачать Чемпионы через торрент http://img11.lostpic.net/2018/09/19/0d140adf065c06d9f660ac2b172e8877.jpg Скачать фильм Чемпионы через торрент бесплантно в хорошем качестве Описание: Марко Монтеса, тренера известной баскетбольной команды за вождение автомобиля в нетрезвом виде лишают прав и приговаривают к ... 8 10 4
Торрент: Зарегистрирован [2018-09-19 11:09] · скачан: 79 раз
Статус: # сомнительно
Размер: 6.47 GB
Как cкачать? Как скачать Чемпионы через торрент | qTorrent

% Раздел Тема Автор DL S | L
T Фильмы (мультфильмы) cо спонсором показа (Новинки AVI/MKV) [ 2.05 GB ] Чемпионы / Champions / Campeones [2018 HDRip] MVO ["Синема УС"] bober100 Скачать
1 | 0
T Фильмы (мультфильмы) cо спонсором показа (Новинки AVI/MKV) [ 1.37 GB ] Чемпионы / Champions / Campeones [2018 HDRip] MVO ["Синема УС"] bober100 Скачать
1 | 0

28-11-2019 20:33  

Отключить всю рекламу на сайте

    Дорогой пользователь! Огромная просьба, поблагодарите релизера, оцените раздачу и оставьте свои комментарий, если Вы скачали Чемпионы через торрент бесплатно! Внесите свою лепту в развитие PiratBit!
    Комментировать посты могут только пользователи прошедшие не сложную регистрацию
    Показать сообщения:    

    Чемпионы через торрент
    Скачать бесплатно Чемпионы
    Чемпионы скачать торрент
    Чемпионы смотреть онлайн
    Cкачать фильм Чемпионы бесплатно
    Чемпионы скачать торрент в хорошем качестве
    Чемпионы смотреть онлайн бесплатно в хорошем качестве


    Вы не можете начинать темы
    Вы не можете отвечать на сообщения
    Вы не можете редактировать свои сообщения
    Вы не можете удалять свои сообщения
    Вы не можете голосовать в опросах
    Вы не можете прикреплять файлы к сообщениям
    Вы можете скачивать файлы