Ссылка на приватное зеркало всего за 1$. Внимание количество ограничено!!!

OK

1+1

iTunes

мы

OK

1

WEB-DLRip

Джокер

Пифагор

Ведьмак / The Witcher сериал

iTunes

ПШазам

ОК

Оно 2

iTunes

30
pack

Вам бонус

ВАЖНО

!!Акция!!

Alien_RageХит недели

RePack

Resident Evil 21

ИГРА 18+

pack

RePack

jed

RePack

fifa19

RePack

Assassins Creed: Odyssey

RePack

NEED FOR SPEED™ PAYBACK

4 сезон

9 сезон

Бесстыжие 9 сезон

Все сериалы

все сериалы на PB.wtf

RePack

FAR CRY 5
  

Лето шестьдесят седьмого / Summer of '67 (Шэрон Уилхарм) [2018, Драма, мелодрама, история, WEB-DL 720p] MVO ["Синема УС"] pb.wtf

Лето шестьдесят седьмого через торрент pb.wtf

Размер: 2.86 GB | Добавлен: 1 год 4 мес. назад | Торрент скачан:17 раз
Скачать  

19-09-2018 11:23 Лето шестьдесят седьмого Скачать торрент  

Лето шестьдесят седьмого / Summer of '67Год выпуска: 2018
Страна: США
Жанр: Драма, мелодрама, история
Продолжительность: 01:25:51
Перевод: Любительский (многоголосый) | "Синема УС"
Субтитры: отсутствуют

Режиссер: Шэрон Уилхарм

rating

В ролях:

Айви Родос, Скита Дженкинс, Карен Боулс, Мими Сагадин, Джо Лара, Стивен Браун, Лиа Хаттон Бисмор, Бадди Кэмпбелл, Кимберли Дж. Ричардсон, Сэм Брукс

Описание:

Лето шестьдесят седьмого рассказывает о неспокойных временах, когда в жизнь простых американцев вторгнулась война во Вьетнаме. Молодая жена и мать, Милли, вынуждена жить со своей свекровью, пока ее муж Джеральд служит на флоте. Кейт должна сделать выбор между Питером, любовью юности, и Вэном, ее новым хиппи бойфрендом. Рубби Мэй наконец находит любовь в лице Реджи, но затем его призывают во Вьетнам. Каждая из женщин сталкивается с вопросом, вернутся ли к ним их мужчины, и, если вернутся, станет ли их жизнь такой, как прежде?

Качество: WEB-DL 720p
Формат: MKV

Видео: h.246,4 384 kb/s, 1280x674
Аудио#1: Русский, (AC3, 2 ch, 384 Кбит/с)
скриншот  скриншот  скриншот  

Общее
Уникальный идентификатор : 170950518581774059758886842614116668392 (0x809BDF4D61F99B4A8EF2379D691253E8)
Полное имя : D:\Summer.of.67.2018.P.WEB-DL.72Op_KOSHARA.mkv
Формат : Matroska
Версия формата : Version 2
Размер файла : 2,86 Гбайт
Продолжительность : 1 ч. 25 м.
Режим общего битрейта : Переменный
Общий поток : 4770 Кбит/сек
Дата кодирования : UTC 2018-09-18 17:12:21
Программа кодирования : mkvmerge v8.3.0 ('Over the Horizon') 64bit
Библиотека кодирования : libebml v1.3.1 + libmatroska v1.4.2

Видео
Идентификатор : 1
Формат : AVC
Формат/Информация : Advanced Video Codec
Профиль формата : High@L4.1
Параметр CABAC формата : Да
Параметр RefFrames формата : 4 кадра
Идентификатор кодека : V_MPEG4/ISO/AVC
Продолжительность : 1 ч. 25 м.
Вид битрейта : Переменный
Битрейт : 4384 Кбит/сек
Максимальный битрейт : 5000 Кбит/сек
Ширина : 1280 пикселей
Высота : 674 пикселя
Соотношение сторон : 1,899
Режим частоты кадров : Постоянный
Частота кадров : 23,976 (24000/1001) кадра/сек
Стандарт вещания : Component
Цветовое пространство : YUV
Субдискретизация насыщенности : 4:2:0
Битовая глубина : 8 бит
Тип развёртки : Прогрессивная
Бит/(Пиксели*Кадры) : 0.207
Размер потока : 2,57 Гбайт (90%)
Default : Да
Forced : Нет
Цветовой диапазон : Limited
Основные цвета : BT.709
Характеристики трансфера : BT.709
Коэффициенты матрицы : BT.709

Аудио
Идентификатор : 2
Формат : AC-3
Формат/Информация : Audio Coding 3
Расширение режима : CM (complete main)
Параметр Endianness формата : Big
Идентификатор кодека : A_AC3
Продолжительность : 1 ч. 25 м.
Вид битрейта : Постоянный
Битрейт : 384 Кбит/сек
Каналы : 2 канала
Расположение каналов : Front: L R
Частота : 48,0 КГц
Частота кадров : 31,250 кадров/сек (1536 spf)
Метод сжатия : С потерями
Размер потока : 236 Мбайт (8%)
Default : Да
Forced : Нет

pb.wtf



Скачать Лето шестьдесят седьмого через торрент http://img11.lostpic.net/2018/09/19/44a257c71afec0d2feff7aa68d9257be.jpg Скачать фильм Лето шестьдесят седьмого через торрент бесплантно в хорошем качестве Описание: Лето шестьдесят седьмого рассказывает о неспокойных временах, когда в жизнь простых американцев вторгнулась война во Вьетнаме. ... 10 10 4
Торрент: Зарегистрирован [2018-09-19 11:23] · скачан: 17 раз
Статус: T временная
Размер: 2.86 GB
Как cкачать? Как скачать Лето шестьдесят седьмого через торрент | qTorrent

28-11-2019 20:33  

Отключить всю рекламу на сайте

    Дорогой пользователь! Огромная просьба, поблагодарите релизера, оцените раздачу и оставьте свои комментарий, если Вы скачали Лето шестьдесят седьмого через торрент бесплатно! Внесите свою лепту в развитие PiratBit!
    Комментировать посты могут только пользователи прошедшие не сложную регистрацию
    Показать сообщения:    

    Лето шестьдесят седьмого через торрент
    Скачать бесплатно Лето шестьдесят седьмого
    Лето шестьдесят седьмого скачать торрент
    Лето шестьдесят седьмого смотреть онлайн
    Cкачать фильм Лето шестьдесят седьмого бесплатно
    Лето шестьдесят седьмого скачать торрент в хорошем качестве
    Лето шестьдесят седьмого смотреть онлайн бесплатно в хорошем качестве


    Вы не можете начинать темы
    Вы не можете отвечать на сообщения
    Вы не можете редактировать свои сообщения
    Вы не можете удалять свои сообщения
    Вы не можете голосовать в опросах
    Вы не можете прикреплять файлы к сообщениям
    Вы можете скачивать файлы