Мега распродажа FORZA HORIZON 4 ULTIMATE+ВСЕ DLC+ОНЛАЙН всего за 499р. 349 руб. (супер цена). Внимание количество ограничено!!!

iTunes

1+1

iTunes

мы

iTunes

1

1 сезон

Чернобыль

1 сезон

Ральф против интернета

Лицензия

ПШазам

8 сезон

Игра престолов

Лицензия

30
pack

ВАЖНО

!!Акция!!

Alien_RageХит недели

RePack

Resident Evil 21

ИГРА 18+

pack

RePack

Metro:Exodus

!!Акция!!

Alien_Rage

RePack

fifa19

RePack

Assassins Creed: Odyssey

RePack

NEED FOR SPEED™ PAYBACK

3 сезон

9 сезон

Бесстыжие 9 сезон

Все сериалы

все сериалы на PB.wtf

RePack

FAR CRY 5
Ребята, катастрофически не хватает 2730р. для оплаты серверов за ИЮНЬ (всвязи с блокировками трафик упал в 3 раза), 1-2р., выручайте.
  

Ночной народ / Nightbreed (Клайв Баркер) [1990 г., ужасы, фэнтези, боевик, DVDRip] pb.wtf

Ночной народ через торрент pb.wtf

Размер: 1.37 GB | Добавлен: 8 лет 7 мес. назад | Торрент скачан:42 раза
Скачать  

12-12-2010 11:38 Ночной народ Скачать торрент  

Ночной народ / Nightbreed
Год выпуска: 1990
Страна: США, Morgan Creek Productions
Жанр: ужасы, фэнтези, боевик
Продолжительность: 01:41:35
Перевод: Профессиональный (многоголосый, закадровый)

Режиссер: Клайв Баркер
Продюссер: Дэвид Баррон, Габриэлла Мартинелли, Джеймс Дж. Робинсон
Сценарий: Клайв Баркер

Премьера в мире: 16 февраля 1990

6.00 (5 733)
6.566 190

В ролях: Крэйг Шеффер, Энн Бобби, Дэвид Кроненберг, Чарльз Хэйд, Хью Куэрши, Хью Росс, Даг Брэдли, Катрин Шевалье, Малкольм Смит, Боб Сессионс

Описание: Молодой человек по имени Бун считает себя виновным в серии зверских убийств. В этом его убедил психиатр Декер. Бун ищет спасения в легендарном Мидиане, подземном городе беглецов, где прощаются все грехи. Этот город — убежище «Ночного народа» древней расычудовищных монстров — мутантов, живых мертвецов, меняющих свой облик и скрывающихся от дневного света и человеческих глаз.

Тепло встреченный «Ночным народом» Бун отныне должен превыше всего ставить безопасность Мидиана. И навсегда забыть Лори, которая любит его и пытается разыскать. А по ее следам идут полиция и Декер, мечтающий уничтожить «Ночной народ»…

Доп. информация: Фильм представляет собой экранизацию литературного произведения Клайва Баркера «Кабал» (в России известен под названием «Ночное племя»).
Фильм снимался в основном в Канаде, только некоторые интерьерные сцены были отсняты в Великобритании.

Качество: DVDRip
Формат: AVI
Видео кодек: XviD
Аудио кодек: AC3
Видео: 704x392 (1.80:1), 23.976 fps, XviD build 47 ~1532 kbps avg, 0.23 bit/pixel
Аудио: 48 kHz, AC3 Dolby Digital, 3/2 (L,C,R,l,r) + LFE ch, ~384.00 kbps avg [ru]
E:\ЗАГРУЗКА\Nochnoi.narod.1990.XviD.DVDRip.avi
General
Complete name : E:\ЗАГРУЗКА\Nochnoi.narod.1990.XviD.DVDRip.avi
Format : AVI
Format/Info : Audio Video Interleave
File size : 1.37 GiB
Duration : 1h 41mn
Overall bit rate : 1 926 Kbps
Writing application : VirtualDubMod 1.5.10.2 (build 2540/release)
Writing library : VirtualDubMod build 2540/release
Video #0
ID : 0
Format : MPEG-4 Visual
Format profile : Advanced Simple@L5
Format settings, BVOP : Yes
Format settings, QPel : No
Format settings, GMC : No warppoints
Format settings, Matrix : Default (MPEG)
Codec ID : XVID
Codec ID/Hint : XviD
Duration : 1h 41mn
Bit rate : 1 533 Kbps
Width : 704 pixels
Height : 392 pixels
Display aspect ratio : 16:9
Frame rate : 23.976 fps
Resolution : 8 bits
Colorimetry : 4:2:0
Scan type : Progressive
Bits/(Pixel*Frame) : 0.232
Stream size : 1.09 GiB (80%)
Writing library : XviD 1.2.0.dev47 (UTC 2006-11-01)
Audio #1
ID : 1
Format : AC-3
Format/Info : Audio Coding 3
Codec ID : 2000
Duration : 1h 41mn
Bit rate mode : Constant
Bit rate : 384 Kbps
Channel(s) : 6 channels
Channel positions : Front: L C R, Surround: L R, LFE
Sampling rate : 48.0 KHz
Stream size : 279 MiB (20%)
Alignment : Split accross interleaves
Interleave, duration : 42 ms (1.00 video frame)
Interleave, preload duration : 500 ms
pb.wtf



Скачать Ночной народ через торрент http://piratbit.in.ua/d3f893a6e6493445bb60ee7f8fe25a43.jpg Скачать фильм Ночной народ через торрент бесплантно в хорошем качестве Описание: Молодой человек по имени Бун считает себя виновным в серии зверских убийств. В этом его убедил психиатр Декер. Бун ищет спасения ... 9 10 1
Info! Золотая раздача, скачанное не засчитывается.
Торрент: Зарегистрирован [2010-12-12 11:38] · скачан: 42 раз
Статус: √ проверено
Размер: 1.37 GB
Как cкачать? Как скачать Ночной народ через торрент | qTorrent

% Раздел Тема Автор DL S | L
Фильмы с авторской озвучкой [ 16.54 GB ] Ночной народ / Nightbreed [1990 экранизация BDRip 1080p] AVO msltel Скачать
1 | 0
Фильмы с авторской озвучкой [ 7.05 GB ] Ночной народ / Nightbreed [1990 экранизация BDRip 720p] AVO msltel Скачать
1 | 0
Фильмы до 2000 г. [ 1.34 GB ] Ночной народ / Nightbreed [ 1990 DVDRip ] GEKADOL Скачать
1 | 0


>> Регистрируемся здесь <<






Отзывы и комментарии о схеме читаем и пишем здесь: ---> Отзывы и комментарии о схеме

Новые благодарочки в телеграм довольных пользователей:
скриншот   скриншот   скриншот   скриншот   скриншот

12-12-2010 18:20 Ночной народ Скачать торрент  

Как фильм.pb.wtf



    Дорогой пользователь! Огромная просьба, поблагодарите релизера, оцените раздачу и оставьте свои комментарий, если Вы скачали Ночной народ через торрент бесплатно! Внесите свою лепту в развитие PiratBit!
    Комментировать посты могут только пользователи прошедшие не сложную регистрацию
    Показать сообщения:    

    Ночной народ через торрент
    Скачать бесплатно Ночной народ
    Ночной народ скачать торрент
    Ночной народ смотреть онлайн
    Cкачать фильм Ночной народ бесплатно
    Ночной народ скачать торрент в хорошем качестве
    Ночной народ смотреть онлайн бесплатно в хорошем качестве


    Вы не можете начинать темы
    Вы не можете отвечать на сообщения
    Вы не можете редактировать свои сообщения
    Вы не можете удалять свои сообщения
    Вы не можете голосовать в опросах
    Вы не можете прикреплять файлы к сообщениям
    Вы можете скачивать файлы