Ссылка на приватное зеркало всего за 1$. Внимание количество ограничено!!!

OK

1+1

iTunes

мы

OK

1

WEB-DLRip

Джокер

Пифагор

Ведьмак / The Witcher сериал

iTunes

ПШазам

ОК

Оно 2

iTunes

30
pack

Вам бонус

ВАЖНО

!!Акция!!

Alien_RageХит недели

RePack

Resident Evil 21

ИГРА 18+

pack

RePack

jed

RePack

fifa19

RePack

Assassins Creed: Odyssey

RePack

NEED FOR SPEED™ PAYBACK

4 сезон

9 сезон

Бесстыжие 9 сезон

Все сериалы

все сериалы на PB.wtf

RePack

FAR CRY 5
  

Сойдёт любая пуля / Any Bullet Will Do (Джастин Ли) [2018 г., Вестерн, WEB-DLRip, Любительский (многоголосый)(Синема УС)] pb.wtf

Сойдёт любая пуля через торрент pb.wtf

Размер: 1.32 GB | Добавлен: 1 год 4 мес. назад | Торрент скачан:133 раза
Скачать  

19-09-2018 13:33 Сойдёт любая пуля Скачать торрент  

Сойдёт любая пуля / Any Bullet Will Do
Год выпуска: 2018
Страна: США / Golden Summit Productions
Жанр: Вестерн
Продолжительность: 01:46:39
Перевод: Любительский (многоголосый)(Синема УС)
Субтитры: Отсутствуют

Режиссер: Джастин Ли

rating

В ролях: Кевин Макли, Брюс Дэвисон, Дженни Кертис, Мег Фостер, Тодд Робинсон, Марк Райан, Роберт Дж. Олин, Шон Кук, Рэнди Райан, Иэн Гари

Описание: Действие разворачивается в 1876-м году в Монтане, где безжалостный охотник за головами пытается выследить собственного Брата в глуши Биг Ская с помощью молодой девушки, занимающейся пушным промыслом.

Доп. информация: Присутствуют вставки текстовой рекламы

Качество: WEB-DLRip
Формат: AVI
Видео кодек: XviD
Аудио кодек: AC3
Видео: XviD, 720x304, ~1564 Kbps
Аудио#1: AC-3, 2 ch, 192 Kbps
скриншот   скриншот   скриншот   скриншот  

Общее
Полное имя : C:\_Cinema 2\Сойдёт любая пуля\Any Bullet Will Do 2018 WEB-DLRip.avi
Формат : AVI
Формат/Информация : Audio Video Interleave
Профиль формата : OpenDML
Размер файла : 1,32 Гбайт
Продолжительность : 1 ч. 46 м.
Общий поток : 1769 Кбит/сек

Видео
Идентификатор : 0
Формат : MPEG-4 Visual
Профиль формата : Advanced Simple@L5
Параметр BVOP формата : 2
Параметр QPel формата : Нет
Параметр GMC формата : Без точки перехода
Параметр матрицы формата : Выборочная
Идентификатор кодека : XVID
Идентификатор кодека/Подсказка : XviD
Продолжительность : 1 ч. 46 м.
Битрейт : 1564 Кбит/сек
Ширина : 720 пикселей
Высота : 304 пикселя
Соотношение сторон : 2,35:1
Частота кадров : 23,976 (24000/1001) кадра/сек
Цветовое пространство : YUV
Субдискретизация насыщенности : 4:2:0
Битовая глубина : 8 бит
Тип развёртки : Прогрессивная
Метод сжатия : С потерями
Бит/(Пиксели*Кадры) : 0.298
Размер потока : 1,17 Гбайт (88%)
Библиотека кодирования : XviD 1.2.1 (UTC 2008-12-04)

Аудио
Идентификатор : 1
Формат : AC-3
Формат/Информация : Audio Coding 3
Расширение режима : CM (complete main)
Параметр Endianness формата : Big
Идентификатор кодека : 2000
Продолжительность : 1 ч. 46 м.
Вид битрейта : Постоянный
Битрейт : 192 Кбит/сек
Каналы : 2 канала
Расположение каналов : Front: L R
Частота : 48,0 КГц
Частота кадров : 31,250 кадров/сек (1536 spf)
Метод сжатия : С потерями
Размер потока : 146 Мбайт (11%)
Выравнивание : Соединение по промежуткам
Продолжительность промежутка : 32 мс. (0,77 видеокадр)

pb.wtf



Скачать Сойдёт любая пуля через торрент http://pic1.kartinco.top/images/11/fic3d.jpg Скачать фильм Сойдёт любая пуля через торрент бесплантно в хорошем качестве Описание: Действие разворачивается в 1876-м году в Монтане, где безжалостный охотник за головами пытается выследить собственного Брата в ... 8.7 10 3
Торрент: Зарегистрирован [2018-09-19 13:33] · скачан: 133 раз
Статус: T временная
Размер: 1.32 GB
Как cкачать? Как скачать Сойдёт любая пуля через торрент | qTorrent

% Раздел Тема Автор DL S | L
T Фильмы (мультфильмы) cо спонсором показа (Новинки AVI/MKV) [ 4.08 GB ] Сойдёт любая пуля / Any Bullet Will Do [2018 WEB-DL 720p] MVO ["Синема УС"] bober100 Скачать
1 | 0

28-11-2019 20:33  

Отключить всю рекламу на сайте

19-09-2018 18:50 Сойдёт любая пуля Скачать торрент  

а как кино?? смотрительно??pb.wtf



    Дорогой пользователь! Огромная просьба, поблагодарите релизера, оцените раздачу и оставьте свои комментарий, если Вы скачали Сойдёт любая пуля через торрент бесплатно! Внесите свою лепту в развитие PiratBit!
    Комментировать посты могут только пользователи прошедшие не сложную регистрацию
    Показать сообщения:    

    Сойдёт любая пуля через торрент
    Скачать бесплатно Сойдёт любая пуля
    Сойдёт любая пуля скачать торрент
    Сойдёт любая пуля смотреть онлайн
    Cкачать фильм Сойдёт любая пуля бесплатно
    Сойдёт любая пуля скачать торрент в хорошем качестве
    Сойдёт любая пуля смотреть онлайн бесплатно в хорошем качестве


    Вы не можете начинать темы
    Вы не можете отвечать на сообщения
    Вы не можете редактировать свои сообщения
    Вы не можете удалять свои сообщения
    Вы не можете голосовать в опросах
    Вы не можете прикреплять файлы к сообщениям
    Вы можете скачивать файлы