Ссылка на приватное зеркало нашего сайта всего за 1$. Внимание количество ограничено!!!

2 сезон

iTunes

1 сезон

1

2 сезон

2 сезон

iTunes

1 сезон

RePack

30

Ultimate

ВАЖНО

ИГРА 18+

pack

RePack

MK11
pack

Забери бонус

RePack

jed

!!Акция!!

Alien_Rage

RePack

fifa19

RePack

Assassins Creed: Odyssey

RePack

NEED FOR SPEED™ PAYBACK

4 сезон

9 сезон

Бесстыжие 9 сезон

Все сериалы

все сериалы на PB.wtf

RePack

FAR CRY 5
  

Йеллоустоун / Yellowstone / Серии 01-09 из 09 (Тэйлор Шеридан) [2018, драма, вестерн, WEB-DL 1080p] [MVO] (NewStudio) pb.wtf

Йеллоустоун через торрент pb.wtf

Размер: 24.4 GB | Добавлен: 2 года 2 мес. назад | Торрент скачан:47 раз
Скачать  

19-09-2018 16:08 Йеллоустоун Скачать торрент  

Йеллоустоун / Yellowstone
Год выпуска: 2018
Страна: США
Жанр: драма, вестерн
Продолжительность: ~00:55:00 (1-я серия ~01:30:00)
Перевод: Профессиональный (многоголосый закадровый) | NewStudio
Режиссёр: Тейлор Шеридан
В ролях: Кевин Костнер, Люк Граймс, Келли Райлли, Уэс Бентли, Коул Хаузер, Келси Эсбиль, Брекен Мэрилл, Джефферсон Уайт, Дэйв Эннэйбл, Дэнни Хьюстон, Джил Бирмингем, Венди Мониз, Майкл Нури, Аттикус Тодд, Джилл Хеннесси, Фредрик Лене, Тимоти Кархарт, Джош Лукас, Гретхен Мол и др.
Описание: Йеллоустон — первый в мире национальный парк, одно из самих посещаемых мест в США. Но здесь, на границе цивилизации, происходит много такого, чего не видят туристы, что не освещается средствами массовой информации. Семья Даттон, главой которой является Джон Даттон, владеет огромным ранчо, сопредельным с территорией парка. На их землю претендует и сам парк, и индейская резервация, и жадные застройщики.



Качество: WEBRip 1080p (исх. WEBRip AMZN 1080p)
Контейнер: MKV
Видео: 1920x1080, 23.976 fps, MPEG-4 AVC, ~7478 kbps, 0.150 bits/pixel
Аудио#1 Rus: 48 kHz, AC3, 2/0 (L,R) ch, 192 kbps | NewStudio
Аудио#2 Eng: 48 kHz, E-AC3, 2/0 (L,R) ch, 224 kbps
Субтитры: Русские (Forced), английские (SDH)
Реклама: Отсутствует
Перевод: Александра Иванова
Очистка от рекламы и подготовка релиза: ad3wal3

    01. Рассвет / Daybreak
    02. Убить гонца / Kill the Messenger
    03. Хороших лошадей нет / No Good Horses
    04. Длинный чёрный поезд / The Long Black Train
    05. Возвращение домой / Coming Home
    06. Запоминание / The Remembering
    07. Чудовище среди нас / A Monster Is Among Us
    08. Развязка: Часть 1 / The Unravelling: Part 1
    09. Развязка: Часть 2 / The Unravelling: Part 2

General
Unique ID : 246334543931854514645014927041933724548 (0xB9524EB5033A1FB0B666847F1235CB84)
Complete name : I:\Yellowstone.S01E01.AMZN.WEBRip.1080p.NewStudio.mkv
Format : Matroska
Format version : Version 4 / Version 2
File size : 5.12 GiB
Duration : 1 h 32 min
Overall bit rate mode : Variable
Overall bit rate : 7 897 kb/s
Encoded date : UTC 2018-07-14 08:03:22
Writing application : mkvmerge v8.3.0 ('Over the Horizon') 32bit
Writing library : libebml v1.3.1 + libmatroska v1.4.2
Attachments : poster.png

Video
ID : 1
Format : AVC
Format/Info : Advanced Video Codec
Format profile : High@L4
Format settings, CABAC : Yes
Format settings, ReFrames : 4 frames
Codec ID : V_MPEG4/ISO/AVC
Duration : 1 h 32 min
Bit rate mode : Variable
Bit rate : 7 478 kb/s
Maximum bit rate : 15.0 Mb/s
Width : 1 920 pixels
Height : 1 080 pixels
Display aspect ratio : 16:9
Frame rate mode : Constant
Frame rate : 23.976 (24000/1001) FPS
Color space : YUV
Chroma subsampling : 4:2:0
Bit depth : 8 bits
Scan type : Progressive
Bits/(Pixel*Frame) : 0.150
Stream size : 4.84 GiB (95%)
Language : English
Default : Yes
Forced : No
Color range : Limited
Color primaries : BT.709
Transfer characteristics : BT.709
Matrix coefficients : BT.709

Audio #1
ID : 2
Format : AC-3
Format/Info : Audio Coding 3
Format settings, Endianness : Big
Codec ID : A_AC3
Duration : 1 h 32 min
Bit rate mode : Constant
Bit rate : 192 kb/s
Channel(s) : 2 channels
Channel positions : Front: L R
Sampling rate : 48.0 kHz
Frame rate : 31.250 FPS (1536 spf)
Bit depth : 16 bits
Compression mode : Lossy
Stream size : 127 MiB (2%)
Title : NewStudio
Language : Russian
Service kind : Complete Main
Default : Yes
Forced : No

Audio #2
ID : 3
Format : E-AC-3
Format/Info : Enhanced Audio Coding 3
Format settings, Endianness : Big
Codec ID : A_EAC3
Duration : 1 h 32 min
Bit rate mode : Constant
Bit rate : 224 kb/s
Channel(s) : 2 channels
Channel positions : Front: L R
Sampling rate : 48.0 kHz
Frame rate : 187.500 FPS (256 spf)
Compression mode : Lossy
Stream size : 149 MiB (3%)
Language : English
Service kind : Complete Main
Default : No
Forced : No

Text #1
ID : 4
Format : ASS
Codec ID : S_TEXT/ASS
Codec ID/Info : Advanced Sub Station Alpha
Duration : 22 s 710 ms
Bit rate : 99 b/s
Count of elements : 5
Compression mode : Lossless
Stream size : 282 Bytes (0%)
Title : Forced
Language : Russian
Default : Yes
Forced : Yes

Text #2
ID : 5
Format : UTF-8
Codec ID : S_TEXT/UTF8
Codec ID/Info : UTF-8 Plain Text
Duration : 1 h 32 min
Bit rate : 55 b/s
Count of elements : 1368
Stream size : 37.8 KiB (0%)
Title : SDH
Language : English
Default : No
Forced : No

скриншот  скриншот  скриншот  
pb.wtf



Скачать Йеллоустоун через торрент http://i104.fastpic.ru/big/2018/0714/c7/3779e97ee5ea8f03c77b17aeae9bb0c7.jpg Скачать фильм Йеллоустоун через торрент бесплантно в хорошем качестве Описание: Йеллоустон — первый в мире национальный парк, одно из самих посещаемых мест в США. Но здесь, на границе цивилизации, происходит ... 10 10 3
Торрент: Зарегистрирован [2018-09-19 16:08] · скачан: 47 раз
Статус: √ проверено
Размер: 24.4 GB
Как cкачать? Как скачать Йеллоустоун через торрент | qTorrent

% Раздел Тема Автор DL S | L
Зарубежные сериалы [ 7.99 GB ] Йеллоустоун / Yellowstone / Серии 01-09 из 09 [2018 WEB-DL 720p] [DVO] killermax2013 Скачать
1 | 0
Зарубежные сериалы [ 5.57 GB ] Йеллоустоун / Yellowstone / Серии 01-09 из 09 [2018 WEB-DLRip] [MVO] killermax2013 Скачать
2 | 0
Зарубежные сериалы [ 7.74 GB ] Йеллоустоун / Yellowstone / Серии 01-09 из 09 [2018 WEB-DL 720p] [MVO] killermax2013 Скачать
1 | 0
Зарубежные сериалы [ 5.46 GB ] Йеллоустоун / Yellowstone / Серии 01-09 из 09 [2018 WEB-DLRip] [MVO] killermax2013 Скачать
1 | 0

28-11-2019 20:33  

Отключить всю рекламу на сайте

    Дорогой пользователь! Огромная просьба, поблагодарите релизера, оцените раздачу и оставьте свои комментарий, если Вы скачали Йеллоустоун через торрент бесплатно! Внесите свою лепту в развитие PiratBit!
    Комментировать посты могут только пользователи прошедшие не сложную регистрацию
    Показать сообщения:    

    Йеллоустоун через торрент
    Скачать бесплатно Йеллоустоун
    Йеллоустоун скачать торрент
    Йеллоустоун смотреть онлайн
    Cкачать фильм Йеллоустоун бесплатно
    Йеллоустоун скачать торрент в хорошем качестве
    Йеллоустоун смотреть онлайн бесплатно в хорошем качестве


    Вы не можете начинать темы
    Вы не можете отвечать на сообщения
    Вы не можете редактировать свои сообщения
    Вы не можете удалять свои сообщения
    Вы не можете голосовать в опросах
    Вы не можете прикреплять файлы к сообщениям
    Вы можете скачивать файлы