Ссылка на приватное зеркало всего за 1$. Внимание количество ограничено!!!

iTunes

1+1

iTunes

мы

WEB-DL

1

iTunes

Чернобыль

iTunes

Ральф против интернета

Лицензия

ПШазам

Лицензия

Оно 2

Лицензия

30
pack

Вам бонус

ВАЖНО

!!Акция!!

Alien_RageХит недели

RePack

Resident Evil 21

ИГРА 18+

pack

RePack

jed

!!Акция!!

Alien_Rage

RePack

fifa19

RePack

Assassins Creed: Odyssey

RePack

NEED FOR SPEED™ PAYBACK

3 сезон

9 сезон

Бесстыжие 9 сезон

Все сериалы

все сериалы на PB.wtf

RePack

FAR CRY 5
Ребята, катастрофически не хватает 1900р. для оплаты серверов за Октябрь (всвязи с блокировками трафик упал в 3 раза), 1-2р., выручайте.
  

НЛО / UFO (Райан Эслинджер) [2018 г., фантастика, боевик, триллер, WEB-DLRip, Профессиональный многоголосый закадровый "iTunes"] pb.wtf

НЛО через торрент pb.wtf

Раздают: 1 [ 0 KB/s ]
Размер: 709 MB | Добавлен: 1 год 2 мес. назад | Торрент скачан:214 раз
Скачать  

19-09-2018 18:42 НЛО Скачать торрент  

НЛО / UFO
Год выпуска: 2018
Страна: США / Story Mining & Supply Co.
Жанр: фантастика, боевик, триллер
Продолжительность: 01:28:25
Перевод: Профессиональный многоголосый закадровый (iTunes)

Режиссер: Райан Эслинджер

rating

В ролях: Алекс Шарп, Элла Пернелл, Бенжамин Битти, Джиллиан Андерсон, Дэвид Стрэтэйрн, Cece Abbey, Дилан Кит Адамс, Jennifer Alexis, Марк Энджел, Кэтлин Эшкрафт

Описание: История одарённого студента, с детства увлечённого идеей о встрече с инопланетянами и поисками НЛО. Героя интересуют слухи о присутствии НЛО в нескольких аэропортах, сам же он привлекает внимание спецслужб.

Качество: WEB-DLRip
Формат: AVI
Видео кодек: XviD
Аудио кодек: MP3
Видео: 640x264 (2.42:1), 23.976 fps, XviD build 50 ~983 kbps avg, 0.24 bit/pixel
Аудио: 48 kHz, MPEG Layer 3, 2 ch, ~128.00 kbps avg
скриншот   скриншот   скриншот   скриншот  

Общее
Полное имя : F:\ФИЛЬМЫ\НЛО.2018.WEB-DLRip.avi
Формат : AVI
Формат/Информация : Audio Video Interleave
Размер файла : 709 Мбайт
Продолжительность : 1 ч. 28 м.
Общий поток : 1121 Кбит/сек
Программа кодирования : VirtualDubMod 1.5.10.3 | www.virtualdub-fr.org || (build 2550/release)
Библиотека кодирования : VirtualDubMod build 2550/release

Видео
Идентификатор : 0
Формат : MPEG-4 Visual
Профиль формата : Advanced Simple@L5
Настройки формата : BVOP2
Параметр BVOP формата : 2
Параметр QPel формата : Нет
Параметр GMC формата : Без точки перехода
Параметр матрицы формата : Default (MPEG)
Идентификатор кодека : XVID
Идентификатор кодека/Подсказка : XviD
Продолжительность : 1 ч. 28 м.
Битрейт : 984 Кбит/сек
Ширина : 640 пикселей
Высота : 264 пикселя
Соотношение сторон : 2,40:1
Частота кадров : 23,976 (24000/1001) кадра/сек
Цветовое пространство : YUV
Субдискретизация насыщенности : 4:2:0
Битовая глубина : 8 бит
Тип развёртки : Прогрессивная
Метод сжатия : С потерями
Бит/(Пиксели*Кадры) : 0.243
Размер потока : 622 Мбайт (88%)
Библиотека кодирования : XviD 1.2.1 (UTC 2008-12-04)

Аудио
Идентификатор : 1
Формат : MPEG Audio
Версия формата : Version 1
Профиль формата : Layer 3
Настройки формата : Joint stereo / MS Stereo
Идентификатор кодека : 55
Идентификатор кодека/Подсказка : MP3
Продолжительность : 1 ч. 28 м.
Вид битрейта : Постоянный
Битрейт : 128 Кбит/сек
Каналы : 2 канала
Частота : 48,0 КГц
Частота кадров : 41,667 кадра/сек (1152 SPF)
Метод сжатия : С потерями
Размер потока : 81,0 Мбайт (11%)
Выравнивание : Соединение по промежуткам
Продолжительность промежутка : 42 мс. (1,00 видеокадр)
Время предзагрузки промежутка : 504 мс.
Библиотека кодирования : LAME3.99r
Настройки программы : -m j -V 4 -q 2 -lowpass 17 -b 128

pb.wtf



Скачать НЛО через торрент http://pic1.kartinco.top/images/11/2zkgf.jpg Скачать фильм НЛО через торрент бесплантно в хорошем качестве Описание: История одарённого студента, с детства увлечённого идеей о встрече с инопланетянами и поисками НЛО. Героя интересуют слухи о ... 8.6 10 7
Торрент: Зарегистрирован [2018-09-19 18:42] · скачан: 214 раз
Статус: √ проверено
Размер: 709 MB
Как cкачать? Как скачать НЛО через торрент | qTorrent

% Раздел Тема Автор DL S | L
Фильмы 2018 [DVDrip, WEB-DLRip, HDrip] (DUB, MVO) [ 1.38 GB ] НЛО / UFO [2018 WEB-DLRip] MVO bober100 Скачать
2 | 0
Фильмы (WEB-DL 720p, 1080p) [ 3.34 GB ] НЛО / UFO [2018 WEB-DL 1080p] MVO bober100 Скачать
2 | 0
Космос [ 9.51 GB ] Ангар-1: Папки НЛО / Hangar 1: The UFO Files [2014-2015 Документальный ТВ-сериал TVRip] Sub Rus кэп Скачать
1 | 0
Документальные фильмы и телепередачи [ 3.9 GB ] Дневники НЛО / UFO Diaries [01-13 из 13] (1995 Документальный познавательный WEB-DLRip] DVO кэп Скачать
1 | 0

28-11-2019 20:33  

Отключить всю рекламу на сайте

    Дорогой пользователь! Огромная просьба, поблагодарите релизера, оцените раздачу и оставьте свои комментарий, если Вы скачали НЛО через торрент бесплатно! Внесите свою лепту в развитие PiratBit!
    Комментировать посты могут только пользователи прошедшие не сложную регистрацию
    Показать сообщения:    

    НЛО через торрент
    Скачать бесплатно НЛО
    НЛО скачать торрент
    НЛО смотреть онлайн
    Cкачать фильм НЛО бесплатно
    НЛО скачать торрент в хорошем качестве
    НЛО смотреть онлайн бесплатно в хорошем качестве


    Вы не можете начинать темы
    Вы не можете отвечать на сообщения
    Вы не можете редактировать свои сообщения
    Вы не можете удалять свои сообщения
    Вы не можете голосовать в опросах
    Вы не можете прикреплять файлы к сообщениям
    Вы можете скачивать файлы