2 сезон

iTunes

MVO

1

2 сезон

iTunes

iTunes

1 сезон

RePack

30

Новинка

ВАЖНО

ИГРА 18+

pack

RePack

MK11
pack

Легкие деньги

RePack

jed

RePack

fifa19

RePack

RDR2

RePack

NEED FOR SPEED™ PAYBACK

4 сезон

9 сезон

Бесстыжие 9 сезон

Все сериалы

все сериалы на PB.wtf

RePack

FAR CRY 5

Anonymous, добрый вечер, мы не успеваем собрать деньги на оплату серверов за декабрь и январь, помогите нам пожалуйста в это трудное время. В качестве благодарности мы отключим Вам всю рекламу на сайте (укажите свой ник в строку Ваше имя)!

×
  
Magnet ссылка

Первый мститель / Captain America: The First Avenger (Джо Джонстон) [2011, фантастика, боевик, приключения, BDRip - HEVC 1080p 12 bit 60 FPS] DUB pb.wtf

Первый мститель через торрент pb.wtf

Размер: 12.41 GB | Добавлен: 2 года 4 мес. назад | Торрент скачан:113 раз
Скачать  

19-09-2018 19:58 Первый мститель Скачать торрент  

Первый мститель / Captain America: The First Avenger
««When patriots become heroes»»

Год выпуска: 2011
Страна: США
Жанр: фантастика, боевик, приключения

Продолжительность: 02:04:11
Перевод: Дублированный
Субтитры: русские
Режиссер: Джо Джонстон
В ролях:

Крис Эванс (Captain America / Steve Rogers), Хейли Этвелл (Peggy Carter), Томми Ли Джонс (Colonel Chester Phillips), Хьюго Уивинг (Johann Schmidt / Red Skull), Себастиан Стэн (James Buchanan «Bucky» Barnes), Доминик Купер (Howard Stark), Тоби Джонс (Dr. Arnim Zola), Стэнли Туччи (Dr. Abraham Erskine), Нил МакДонаф (Timothy «Dum Dum» Dugan), Дерек Люк (Gabe Jones), Ричард Армитедж (Heinz Kruger), Сэмюэл Л. Джексон (Nick Fury)
Описание:
Стив Роджерс добровольно соглашается принять участие в эксперименте, который превратит его в суперсолдата, известного как Первый мститель. Роджерс вступает в вооруженные силы США вместе с Баки Барнсом и Пегги Картер, чтобы бороться с враждебной организацией ГИДРА, которой управляет безжалостный Красный Череп.
Мировая премьера: 19 июля 2011

MPAA: PG-13 - Детям до 13 лет просмотр не желателен
Качество: BDRip 1080p by DD2D3
Формат: MKV
Видео кодек: V_MPEGH/ISO/HEVC
Аудио кодек: AC3
Видео: V_MPEGH/ISO/HEVC, 1920x816 (2.35:1), 13657 kbps, 59,940 fps, 0,145 bpp
Аудио: русский / AC3 / 5.1 / 48 kHz / 640 kbps / ||

General
Unique ID : 185080865241571841352571359646387817458 (0x8B3D472E4BFFC39EA92B102F82104BF2)
Complete name : D:\Первый мститель - Captain America The First Avenger (2011) BDRip - HEVC 1080p 12 bit 60 FPS.mkv
Format : Matroska
Format version : Version 4 / Version 2
File size : 12.4 GiB
Duration : 2 h 4 min
Overall bit rate : 14.3 Mb/s
Encoded date : UTC 2018-09-19 16:45:18
Writing application : mkvmerge v10.0.0 ('To Drown In You') 32bit
Writing library : libebml v1.3.4 + libmatroska v1.4.5
Attachments : poster

Video
ID : 1
Format : HEVC
Format/Info : High Efficiency Video Coding
Format profile : @L4.1@Main
Codec ID : V_MPEGH/ISO/HEVC
Duration : 2 h 4 min
Bit rate : 13.7 Mb/s
Width : 1 920 pixels
Height : 816 pixels
Display aspect ratio : 2.35:1
Frame rate mode : Constant
Frame rate : 59.940 (60000/1001) FPS
Color space : YUV
Chroma subsampling : 4:2:0
Bit depth : 12 bits
Bits/(Pixel*Frame) : 0.145
Stream size : 11.8 GiB (95%)
Writing library : x265 2.3+33-0b7d54dbb71a87a0:[Windows][MSVC 1800][64 bit] 12bit: KG7x [x265.ru]
Encoding settings : cpuid=1173503 / frame-threads=2 / numa-pools=4 / wpp / no-pmode / no-pme / no-psnr / no-ssim / log-level=2 / input-csp=1 / input-res=1920x816 / interlace=0 / total-frames=446646 / level-idc=41 / high-tier=1 / uhd-bd=0 / ref=4 / no-allow-non-conformance / no-repeat-headers / annexb / no-aud / no-hrd / info / hash=0 / no-temporal-layers / open-gop / min-keyint=25 / keyint=250 / bframes=4 / b-adapt=2 / b-pyramid / bframe-bias=0 / rc-lookahead=25 / lookahead-slices=4 / scenecut=40 / no-intra-refresh / ctu=64 / min-cu-size=8 / rect / no-amp / max-tu-size=32 / tu-inter-depth=1 / tu-intra-depth=1 / limit-tu=0 / rdoq-level=2 / dynamic-rd=0.00 / no-ssim-rd / signhide / no-tskip / nr-intra=0 / nr-inter=0 / no-constrained-intra / strong-intra-smoothing / max-merge=3 / limit-refs=3 / limit-modes / me=3 / subme=3 / merange=57 / temporal-mvp / weightp / no-weightb / no-analyze-src-pics / deblock=0:0 / no-sao / no-sao-non-deblock / rd=4 / no-early-skip / no-rskip / no-fast-intra / no-tskip-fast / no-cu-lossless / no-b-intra / rdpenalty=0 / psy-rd=4.00 / psy-rdoq=10.00 / no-rd-refine / analysis-mode=0 / no-lossless / cbqpoffs=0 / crqpoffs=0 / rc=abr / bitrate=13653 / qcomp=0.60 / qpstep=1 / stats-write=0 / stats-read=2 / cplxblur=20.0 / qblur=0.5 / ipratio=1.10 / pbratio=1.00 / aq-mode=0 / aq-strength=0.00 / no-cutree / zone-count=0 / no-strict-cbr / qg-size=64 / rc-grain / qpmax=69 / qpmin=0 / sar=1 / overscan=0 / videoformat=5 / range=0 / colorprim=1 / transfer=1 / colormatrix=1 / chromaloc=0 / display-window=0 / max-cll=0,0 / min-luma=0 / max-luma=4095 / log2-max-poc-lsb=8 / vui-timing-info / vui-hrd-info / slices=1 / opt-qp-pps / opt-ref-list-length-pps / no-multi-pass-opt-rps / scenecut-bias=0.05 / no-opt-cu-delta-qp / no-aq-motion / no-hdr / no-hdr-opt / refine-level=5 / no-limit-sao
Default : Yes
Forced : No
Color range : Limited
Color primaries : BT.709
Transfer characteristics : BT.709
Matrix coefficients : BT.709

Audio
ID : 2
Format : AC-3
Format/Info : Audio Coding 3
Mode extension : CM (complete main)
Format settings, Endianness : Big
Codec ID : A_AC3
Duration : 2 h 4 min
Bit rate mode : Constant
Bit rate : 640 kb/s
Channel(s) : 6 channels
Channel positions : Front: L C R, Side: L R, LFE
Sampling rate : 48.0 kHz
Frame rate : 31.250 FPS (1536 spf)
Compression mode : Lossy
Stream size : 569 MiB (4%)
Language : Russian
Default : Yes
Forced : No

Text
ID : 3
Format : PGS
Muxing mode : zlib
Codec ID : S_HDMV/PGS
Codec ID/Info : Picture based subtitle format used on BDs/HD-DVDs
Duration : 2 h 2 min
Bit rate : 8 398 b/s
Count of elements : 2478
Stream size : 7.38 MiB (0%)
Language : Russian
Default : Yes
Forced : No
скриншот  скриншот  скриншот  скриншот  скриншот  скриншот  
pb.wtf



Скачать Первый мститель через торрент http://funkyimg.com/i/2Lokp.jpg Скачать фильм Первый мститель через торрент бесплантно в хорошем качестве Описание: Стив Роджерс добровольно соглашается принять участие в эксперименте, который превратит его в суперсолдата, известного как Первый ... 10 10 8
Info! Золотая раздача, скачанное не засчитывается.
Торрент: Зарегистрирован [2018-09-19 19:58] · скачан: 113 раз
Статус: √ проверено
Размер: 12.41 GB
Как cкачать? Как скачать Первый мститель через торрент | UTorrent

% Раздел Тема Автор DL S | L
Ultra HD (UHD: 2K, 4K, 8K) — видео сверхвысокой чёткости [ 16.6 GB ] Первый мститель / Captain America: The First Avenger [2011 UHD BDRip 2160p] DUB + 2xAVO sheker187 Скачать
2 | 0
Ultra HD (UHD: 2K, 4K, 8K) — видео сверхвысокой чёткости [ 60.67 GB ] Первый мститель / Captain America: The First Avenger [2011 UHD BDRemux 2160p] 2xAVO+2xDUB [] bober100 Скачать
1 | 1
Ultra HD (UHD: 2K, 4K, 8K) — видео сверхвысокой чёткости [ 66.03 GB ] Первый мститель / Captain America: The First Avenger [2011 UHD Blu-ray 2160p] 2xAVO+2xDUB [] bober100 Скачать
1 | 0
Фильмы [HD 720p, 1080p] (Хороший звук DUB, MVO) [ 17.28 GB ] Первый мститель / Captain America: The First Avenger [2011 BDRip 1080p DUB + Оригинал+укр дубляж+Sub engrusukr Trava-HD Скачать
1 | 0

28-11-2019 20:33  

Отключить всю рекламу на сайте

11-06-2020 22:25 Первый мститель Скачать торрент  

Спасибо, найден размер лучше! pb.wtf



    Дорогой пользователь! Огромная просьба, поблагодарите релизера, оцените раздачу и оставьте свои комментарий, если Вы скачали Первый мститель через торрент бесплатно! Внесите свою лепту в развитие PiratBit!
    Комментировать посты могут только пользователи прошедшие не сложную регистрацию
    Показать сообщения:    

    Первый мститель через торрент
    Скачать бесплатно Первый мститель
    Первый мститель скачать торрент
    Первый мститель смотреть онлайн
    Cкачать фильм Первый мститель бесплатно
    Первый мститель скачать торрент в хорошем качестве
    Первый мститель смотреть онлайн бесплатно в хорошем качестве


    Вы не можете начинать темы
    Вы не можете отвечать на сообщения
    Вы не можете редактировать свои сообщения
    Вы не можете удалять свои сообщения
    Вы не можете голосовать в опросах
    Вы не можете прикреплять файлы к сообщениям
    Вы можете скачивать файлы