Ссылка на приватное зеркало нашего сайта всего за 1$. Внимание количество ограничено!!!

2 сезон

iTunes

1 сезон

1

2 сезон

2 сезон

iTunes

1 сезон

RePack

30

Ultimate

ВАЖНО

ИГРА 18+

pack

RePack

MK11
pack

Забери бонус

RePack

jed

!!Акция!!

Alien_Rage

RePack

fifa19

RePack

Assassins Creed: Odyssey

RePack

NEED FOR SPEED™ PAYBACK

4 сезон

9 сезон

Бесстыжие 9 сезон

Все сериалы

все сериалы на PB.wtf

RePack

FAR CRY 5
  

Железный кулак / Marvel's Iron Fist / Сезон: 2 / Серии: 1-10 из 10 (Джон Дал, Фэррен Блэкберн) [2018, Фантастика, боевик, криминал, приключения, WEBRip] MVO [Jaskier] pb.wtf

Железный кулак через торрент pb.wtf

Размер: 6.4 GB | Добавлен: 2 года 2 мес. назад | Торрент скачан:30 раз
Скачать  

19-09-2018 20:59 Железный кулак Скачать торрент  

✘ Железный кулак | Marvel's Iron Fist ✘ ✦ Год выпуска: 2018
✦ Страна: США
✦ Жанр: Фантастика, боевик, криминал, приключения
✦ Продолжительность: ~ 00:55:00
✦ Перевод: Профессиональный (многоголосый закадровый) | Jaskier
✦ Субтитры: отсутствуют

✦ Режиссёр: Джон Дал, Фэррен Блэкберн, Ута Бризвитц

В ролях:

Финн Джонс, Джессика Хенвик, Джессика Строуп, Дэвид Уэнэм, Розарио Доусон, Рамон Фернандес, Хосе Баэс, Людовик Куто, Тоби Николс, Крэйг Джерати, Доа Моа, Тихуана Рикс, По Шадоу, Йинка Адебойэку, Джастин Блейк, Никита Боголюбов, Николь Бонифачио, Альберто Бонилла, Эммануэль Браун и др.

Описание:

Встречайте нового героя! Он уже идет босиком по Нью-Йорку и радуется жизни! Это Денни Рэнд — Железный кулак. Его оптимизм подбодрил бы даже Джессику Джонс, а кошачья грация оставляет позади самого Мэтта Мёрдока. А ещё у него есть то, чего не хватает известным нам супер-героям (хотя они не жалуются), — деньги и время. Дело за малым — доказать, что он пропавший миллиардер, и победить много-палую Руку. И надежда есть — достаточно сказать, что к нему хорошо относится даже Джери Хогарт. как можно снять не разочаровывающего злодея, после великолепных образов, воплощенных Д'Онофрио и Теннантом. Однако сценаристы сумели найти интересное и многогранное решение.

rating

✦ Качество: WEBRip
✦ Формат: AVI

✦ Видео: XviD, ~ 1350 kbps, 720x400 (16:9), 23.976 fps
✦ Аудио 1: MP3, 48,0 КГц, 2 ch, 128 kbps - Rus
✦ Аудио 2: MP3, 48,0 КГц, 2 ch, 128 kbps - Eng


Реклама: Присутствует звуковая (два раза в начале и конце по 12 сек.)
Переведено и озвучено: студией Jaskier
Общее
Полное имя                               : D:\Яскъер\Marvels Iron Fist. Season 2 (WEBRip l 400p l Jaskier)\Marvels.Iron.Fist.S02E01.WEBRip.Rus.Eng.Jaskier.avi
Формат                                   : AVI
Формат/Информация                        : Audio Video Interleave
Размер файла                             : 700 Мбайт
Продолжительность                        : 57 м. 11 с.
Общий поток                              : 1712 Кбит/сек
Программа кодирования                    : VirtualDubMod 1.5.10.3 | www.virtualdub-fr.org || (build 2550/release)
Библиотека кодирования                   : VirtualDubMod build 2550/release

Видео
Идентификатор                            : 0
Формат                                   : MPEG-4 Visual
Профиль формата                          : Advanced Simple@L5
Настройки формата                        : BVOP1 / Custom Matrix
Параметр BVOP формата                    : 1
Параметр QPel формата                    : Нет
Параметр GMC формата                     : Без точки перехода
Параметр матрицы формата                 : Выборочная
Идентификатор кодека                     : XVID
Идентификатор кодека/Подсказка           : XviD
Продолжительность                        : 57 м. 11 с.
Битрейт                                  : 1442 Кбит/сек
Ширина                                   : 720 пикселей
Высота                                   : 400 пикселей
Соотношение сторон                       : 16:9
Частота кадров                           : 23,976 (24000/1001) кадра/сек
Частота кадров в оригинале               : 23,976 (23976/1000) кадра/сек
Цветовое пространство                    : YUV
Субдискретизация насыщенности            : 4:2:0
Битовая глубина                          : 8 бит
Тип развёртки                            : Прогрессивная
Метод сжатия                             : С потерями
Бит/(Пиксели*Кадры)                      : 0.209
Размер потока                            : 590 Мбайт (84%)
Библиотека кодирования                   : XviD 73

Аудио #1
Идентификатор                            : 1
Формат                                   : MPEG Audio
Версия формата                           : Version 1
Профиль формата                          : Layer 3
Настройки формата                        : Joint stereo / MS Stereo
Идентификатор кодека                     : 55
Идентификатор кодека/Подсказка           : MP3
Продолжительность                        : 57 м. 11 с.
Вид битрейта                             : Постоянный
Битрейт                                  : 128 Кбит/сек
Каналы                                   : 2 канала
Частота                                  : 48,0 КГц
Метод сжатия                             : С потерями
Размер потока                            : 52,4 Мбайт (7%)
Выравнивание                             : Соединение по промежуткам
Продолжительность промежутка             : 42  мс. (1,00 видеокадр)
Время предзагрузки промежутка            : 504  мс.

Аудио #2
Идентификатор                            : 2
Формат                                   : MPEG Audio
Версия формата                           : Version 1
Профиль формата                          : Layer 3
Настройки формата                        : Joint stereo / MS Stereo
Идентификатор кодека                     : 55
Идентификатор кодека/Подсказка           : MP3
Продолжительность                        : 57 м. 11 с.
Вид битрейта                             : Постоянный
Битрейт                                  : 128 Кбит/сек
Каналы                                   : 2 канала
Частота                                  : 48,0 КГц
Метод сжатия                             : С потерями
Размер потока                            : 52,4 Мбайт (7%)
Выравнивание                             : Соединение по промежуткам
Продолжительность промежутка             : 42  мс. (1,00 видеокадр)
Время предзагрузки промежутка            : 504  мс.
скриншот  скриншот  скриншот  
Когда раздача ведётся путём добавления новых серий, при каждом добавлении создётся новый торрент. Чтобы начать докачку новой серии, пользователям необходимо сделать следующее:
(1) остановить скачивание,
(2) удалить старый торрент у себя из клиента (старые серии удалять не надо),
(3) скачать новый торрент и запустить его у себя в клиенте вместо старого, при этом указать клиенту путь в старую папку, куда и должно происходить скачивание новых серий.
Ваш клиент при этом должен произвести хеширование (проверку) старой папки (если не производит сам - помогите ему сделать это), и будет докачивать только те серии, которых у вас ещё нет. Старые серии при этом не удаляются, а продолжают раздаваться!
Eсли вы уже удалили старые серии, то предотвратить повторную закачку старых серий можно, отжав галочку в соответсвующих местах при запуске нового торрента. По возможности, желательно не удалять старые серии как можно дольше, чтобы релизёр не столько продолжал раздавать старые серии, а смог сконцентрироваться на новых.
pb.wtf



Скачать Железный кулак через торрент http://img11.lostpic.net/2018/09/20/f8d085d1864ae632bc6867ea05eb0a1b.png Скачать фильм Железный кулак через торрент бесплантно в хорошем качестве Описание: Встречайте нового героя! Он уже идет босиком по Нью-Йорку и радуется жизни! Это Денни Рэнд — Железный кулак. Его оптимизм ... 10 10 6
Торрент: Зарегистрирован [2018-09-19 21:00] · скачан: 30 раз
Статус: √ проверено
Размер: 6.4 GB
Как cкачать? Как скачать Железный кулак через торрент | qTorrent

28-11-2019 20:33  

Отключить всю рекламу на сайте

    Дорогой пользователь! Огромная просьба, поблагодарите релизера, оцените раздачу и оставьте свои комментарий, если Вы скачали Железный кулак через торрент бесплатно! Внесите свою лепту в развитие PiratBit!
    Комментировать посты могут только пользователи прошедшие не сложную регистрацию
    Показать сообщения:    

    Железный кулак через торрент
    Скачать бесплатно Железный кулак
    Железный кулак скачать торрент
    Железный кулак смотреть онлайн
    Cкачать фильм Железный кулак бесплатно
    Железный кулак скачать торрент в хорошем качестве
    Железный кулак смотреть онлайн бесплатно в хорошем качестве


    Вы не можете начинать темы
    Вы не можете отвечать на сообщения
    Вы не можете редактировать свои сообщения
    Вы не можете удалять свои сообщения
    Вы не можете голосовать в опросах
    Вы не можете прикреплять файлы к сообщениям
    Вы можете скачивать файлы