Anonymous, добрый вечер, присоединяйтесь к нам в Telegram!, здесь всегда актуальный адрес сайта, оперативная поддержка и многое другое!

>

5.5

iTunes

7.4

iTunes

7.9

iTunes

1

7.7

1 сезон

6.8

iTunes

7.3

1 сезон

13

6.7

1 сезон

8.3

RePack

30

ULTIMATE

pack

9.9

Лицензия

ВАЖНО

ИГРА 18+

pack

7.3

RePack

MK11

7.7

RePack

jed

7.8

RePack

fifa19

8.5

RePack

RDR2

RePack

NEED FOR SPEED™ PAYBACK

4 сезон

9 сезон

Бесстыжие 9 сезон

Все сериалы

все сериалы на PB.wtf

RePack

FAR CRY 5

Anonymous, добрый вечер, мы катастрофически не успеваем собрать деньги на оплату серверов, помогите нам пожалуйста 5,10,15р., для нас важна любая помощь . В качестве благодарности мы отключим Вам всю рекламу на сайте (укажите свой ник в строку Ваше имя)!

×
  
Magnet ссылка

Бонус / Сезон: 1 / Серии : 1-16 из 16 (Валерия Гай Германика) [2018, Драма, музыка, WEB-DL 1080p] pb.wtf

Бонус через торрент pb.wtf

Раздают: 1 [ 0 KB/s ]
Размер: 22.76 GB | Добавлен: 2 года 10 мес. назад | Торрент скачан:55 раз
Смотреть онлайн Бонус | Скачать    Ребята, помогите собрать деньги на оплату серверов!!!

19-09-2018 21:36 Бонус Скачать торрент  

Бонус
Год выпуска: 2018
Страна: Россия
Жанр: Драма, музыка
Продолжительность: ~ 00:36:00
Субтитры: отсутствуют

Режиссер: Валерия Гай Германика



В ролях:

Александр Сударев, Артем Сучков, Дмитрий Смирнов (IV), Павел Комаров (II), Варвара Назарова, Антон Адасинский, Валерий Полиенко, Юлия Ауг, Светлана Лимпер, Лана Райдер, Григорий Чабан, Евгений Смирнов-Иваницкий, Александр Логинов (III), Денис Фартовый, Екатерина Васильева (V)

Описание:

Юный рэпер из провинции по прозвищу Бонус отправляется покорять столицу, где влюбляется в дочь известного бизнесмена. Но Москва слезам и рифмам не верит: вместе с первыми выступлениями Бонусу предстоит пережить несчастную любовь, конфликты с отцом девушки, взлеты и падения на фоне столичной рэп-тусовки.


Качество: WEB-DL 1080p
Формат: MKV

Видео: MPEG-4 AVC, ~ 5000 Кбит/с, 1920x1080
Аудио: AC3, 2 ch, 192 Кбит/с
скриншот  скриншот  скриншот  

Общее
Уникальный идентификатор : 241895510819363744426428849976995512142 (0xB5FB617A244CD5E1B96B794ABD287F4E)
Полное имя : D:\Bonus.2018.WEB-DL.(1080p).Getty\Bonus.e01.2018.WEB-DL.(1080p).Getty.mkv
Формат : Matroska
Версия формата : Version 4 / Version 2
Размер файла : 1,27 Гбайт
Продолжительность : 35 м. 34 с.
Режим общего битрейта : Постоянный
Общий поток : 5123 Кбит/сек
Название фильма : Bonus.e01.2018.WEB-DL.(1080p).Getty
Дата кодирования : UTC 2018-09-19 20:35:06
Программа кодирования : mkvmerge v7.8.0 ('River Man') 32bit built on Mar 27 2015 16:18:02
Библиотека кодирования : libebml v1.3.1 + libmatroska v1.4.2

Видео
Идентификатор : 1
Формат : AVC
Формат/Информация : Advanced Video Codec
Профиль формата : Baseline@L4
Параметр CABAC формата : Нет
Параметр RefFrames формата : 4 кадра
Параметр GOP формата : M=1, N=50
Идентификатор кодека : V_MPEG4/ISO/AVC
Продолжительность : 35 м. 34 с.
Вид битрейта : Постоянный
Битрейт : 5000 Кбит/сек
Ширина : 1920 пикселей
Высота : 1080 пикселей
Соотношение сторон : 16:9
Режим частоты кадров : Постоянный
Частота кадров : 25,000 кадров/сек
Стандарт вещания : PAL
Цветовое пространство : YUV
Субдискретизация насыщенности : 4:2:0
Битовая глубина : 8 бит
Тип развёртки : Прогрессивная
Бит/(Пиксели*Кадры) : 0.096
Размер потока : 1,22 Гбайт (96%)
Default : Да
Forced : Нет
Цветовой диапазон : Limited
Основные цвета : BT.709
Характеристики трансфера : BT.709
Коэффициенты матрицы : BT.709

Аудио
Идентификатор : 2
Формат : AC-3
Формат/Информация : Audio Coding 3
Расширение режима : CM (complete main)
Параметр Endianness формата : Big
Идентификатор кодека : A_AC3
Продолжительность : 35 м. 34 с.
Вид битрейта : Постоянный
Битрейт : 192 Кбит/сек
Каналы : 2 канала
Расположение каналов : Front: L R
Частота : 48,0 КГц
Частота кадров : 31,250 кадров/сек (1536 spf)
Метод сжатия : С потерями
Размер потока : 48,8 Мбайт (4%)
Default : Да
Forced : Нет

Когда раздача ведётся путём добавления новых серий, при каждом добавлении создётся новый торрент. Чтобы начать докачку новой серии, пользователям необходимо сделать следующее:
(1) остановить скачивание,
(2) удалить старый торрент у себя из клиента (старые серии удалять не надо),
(3) скачать новый торрент и запустить его у себя в клиенте вместо старого, при этом указать клиенту путь в старую папку, куда и должно происходить скачивание новых серий.
Ваш клиент при этом должен произвести хеширование (проверку) старой папки (если не производит сам - помогите ему сделать это), и будет докачивать только те серии, которых у вас ещё нет. Старые серии при этом не удаляются, а продолжают раздаваться!
Eсли вы уже удалили старые серии, то предотвратить повторную закачку старых серий можно, отжав галочку в соответсвующих местах при запуске нового торрента. По возможности, желательно не удалять старые серии как можно дольше, чтобы релизёр не столько продолжал раздавать старые серии, а смог сконцентрироваться на новых.
pb.wtf



Скачать Бонус через торрент https://c.radikal.ru/c07/1809/2a/3a043a08a25c.jpg Скачать, смотреть онлайн Бонус бесплантно в хорошем качестве Описание: Юный рэпер из провинции по прозвищу Бонус отправляется покорять столицу, где влюбляется в дочь известного бизнесмена. Но Москва ... 6.9 10 10
Торрент: Зарегистрирован [2018-12-20 16:59] · скачан: 55 раз
Статус: √ проверено
Размер: 22.76 GB
Как cкачать? Как скачать Бонус через торрент | UTorrent

% Раздел Тема Автор DL S | L
Зарубежные сериалы [ 85.05 GB ] Леденящие душу Сабрины / Chilling Adventures of Sabrina / Сезон: 1 / Серии: 1-10 из 10 + Бонус [2018 WEBRip-HEVC 2160p] MVO [LostFilm] bober100 Скачать
1 | 0
TNT serials [ 18.59 GB ] Бонус / Сезон: 1 / Серии : 1-16 из 16 [2018 музыка WEB-DL 720p] bober100 Скачать
1 | 0
TNT serials [ 7.95 GB ] Бонус / Сезон: 1 / Серии : 1-16 из 16 [2018 музыка WEB-DLRip-AVC] bober100 Скачать
1 | 0
TNT serials [ 5.34 GB ] Бонус / Сезон: 1 / Серии: [2018 музыка WEBRip-AVC] [Русский] R.G.Generalfilm White Smoke Скачать
1 | 0
TNT serials [ 8.19 GB ] Бонус / Сезон: 1 / Серии : 1-16 из 16 [2018 музыка WEB-DLRip] bober100 Скачать
1 | 0
Мультсериалы [ 6.7 GB ] Шиммер и Шайн / Shimmer and Shine / Сезон 1 / Серии: 1-19 из 19 + бонус [2015-2016 мультфильм HDTVRip-AVC by keeper.52] DU keeper.52 Скачать
2 | 0
Мультсериалы [ 6.73 GB ] Шиммер и Шайн / Shimmer and Shine / Сезон 1 / Серии: 1-19 из 19 + бонус [2015-2016 мультфильм HDTVRip by keeper.52] DUB keeper.52 Скачать
2 | 0

28-11-2019 20:33  

Отключить всю рекламу на сайте

    Дорогой пользователь! Огромная просьба, поблагодарите релизера, оцените раздачу и оставьте свои комментарий, если Вы скачали Бонус через торрент бесплатно!
    Комментировать посты могут только пользователи прошедшие не сложную регистрацию
    Показать сообщения:    

    Бонус через торрент
    Скачать бесплатно Бонус
    Бонус скачать торрент
    Бонус смотреть онлайн
    Cкачать фильм Бонус бесплатно
    Бонус скачать торрент в хорошем качестве
    Бонус смотреть онлайн бесплатно в хорошем качестве


    Вы не можете начинать темы
    Вы не можете отвечать на сообщения
    Вы не можете редактировать свои сообщения
    Вы не можете удалять свои сообщения
    Вы не можете голосовать в опросах
    Вы не можете прикреплять файлы к сообщениям
    Вы можете скачивать файлы