Ссылка на приватное зеркало всего за 1$. Внимание количество ограничено!!!

OK

1+1

iTunes

мы

OK

1

WEB-DLRip

Джокер

Пифагор

Ведьмак / The Witcher сериал

iTunes

ПШазам

ОК

Оно 2

iTunes

30
pack

Вам бонус

ВАЖНО

!!Акция!!

Alien_RageХит недели

RePack

Resident Evil 21

ИГРА 18+

pack

RePack

jed

RePack

fifa19

RePack

Assassins Creed: Odyssey

RePack

NEED FOR SPEED™ PAYBACK

4 сезон

9 сезон

Бесстыжие 9 сезон

Все сериалы

все сериалы на PB.wtf

RePack

FAR CRY 5
  

Сомнения / Mistrust (Шэйн Стэнли) [2018 г., Драма, мелодрама, WEB-DLRip, Любительский (многоголосый)(Синема УС)] pb.wtf

Сомнения через торрент pb.wtf

Размер: 1.3 GB | Добавлен: 1 год 4 мес. назад | Торрент скачан:18 раз
Скачать  

20-09-2018 03:04 Сомнения Скачать торрент  

Сомнения / Mistrust
Год выпуска: 2018
Страна: США / Visual Arts Entertainment, Ruby Slipper Productions
Жанр: Драма, мелодрама
Продолжительность: 01:29:42
Перевод: Любительский (многоголосый)(Синема УС)
Субтитры: Отсутствуют

Режиссер: Шэйн Стэнли

rating

В ролях: Джейн Сеймур, Паркер Стивенсон, Ниа Пиплз, Уильям Шокли, Эллен Траволта, Иэн Огилви, Кэтерин Флинн, Джоэл Брукс, Джек Бэннон, Патрик Бристоу

Описание: История женщины, которая всю свою жизнь была чьей-то любовницей. Нормальные отношения кажутся ей непонятными и чуждыми. Сможет ли преданный друг доказать ей, что настоящая любовь и верность существуют?



Качество: WEB-DLRip
Формат: AVI
Видео кодек: XviD
Аудио кодек: AC3
Видео: XviD, 720x400, ~1611 Kbps
Аудио#1: AC-3, 2 ch, 448 Kbps
скриншот   скриншот   скриншот   скриншот  

Общее
Полное имя : C:\_Cinema 2\Сомнения\Mistrust 2018 WEB-DLRip.avi
Формат : AVI
Формат/Информация : Audio Video Interleave
Профиль формата : OpenDML
Размер файла : 1,30 Гбайт
Продолжительность : 1 ч. 29 м.
Общий поток : 2072 Кбит/сек

Видео
Идентификатор : 0
Формат : MPEG-4 Visual
Профиль формата : Advanced Simple@L5
Параметр BVOP формата : 2
Параметр QPel формата : Нет
Параметр GMC формата : Без точки перехода
Параметр матрицы формата : Default (H.263)
Идентификатор кодека : XVID
Идентификатор кодека/Подсказка : XviD
Продолжительность : 1 ч. 29 м.
Битрейт : 1611 Кбит/сек
Ширина : 720 пикселей
Высота : 400 пикселей
Соотношение сторон : 16:9
Частота кадров : 23,976 (24000/1001) кадра/сек
Цветовое пространство : YUV
Субдискретизация насыщенности : 4:2:0
Битовая глубина : 4 бит
Тип развёртки : Прогрессивная
Метод сжатия : С потерями
Бит/(Пиксели*Кадры) : 0.233
Размер потока : 1,01 Гбайт (78%)
Библиотека кодирования : XviD 1.2.1 (UTC 2008-12-04)

Аудио
Идентификатор : 1
Формат : AC-3
Формат/Информация : Audio Coding 3
Расширение режима : CM (complete main)
Параметр Endianness формата : Big
Идентификатор кодека : 2000
Продолжительность : 1 ч. 29 м.
Вид битрейта : Постоянный
Битрейт : 448 Кбит/сек
Каналы : 2 канала
Расположение каналов : Front: L R
Частота : 48,0 КГц
Частота кадров : 31,250 кадров/сек (1536 spf)
Метод сжатия : С потерями
Размер потока : 287 Мбайт (22%)
Выравнивание : Соединение по промежуткам
Продолжительность промежутка : 32 мс. (0,77 видеокадр)

pb.wtf



Скачать Сомнения через торрент http://pic1.kartinco.top/images/11/jh7tm.jpg Скачать фильм Сомнения через торрент бесплантно в хорошем качестве Описание: История женщины, которая всю свою жизнь была чьей-то любовницей. Нормальные отношения кажутся ей непонятными и чуждыми. Сможет ли ... 7 10 1
Торрент: Зарегистрирован [2018-09-20 03:04] · скачан: 18 раз
Статус: T временная
Размер: 1.3 GB
Как cкачать? Как скачать Сомнения через торрент | qTorrent

28-11-2019 20:33  

Отключить всю рекламу на сайте

    Дорогой пользователь! Огромная просьба, поблагодарите релизера, оцените раздачу и оставьте свои комментарий, если Вы скачали Сомнения через торрент бесплатно! Внесите свою лепту в развитие PiratBit!
    Комментировать посты могут только пользователи прошедшие не сложную регистрацию
    Показать сообщения:    

    Сомнения через торрент
    Скачать бесплатно Сомнения
    Сомнения скачать торрент
    Сомнения смотреть онлайн
    Cкачать фильм Сомнения бесплатно
    Сомнения скачать торрент в хорошем качестве
    Сомнения смотреть онлайн бесплатно в хорошем качестве


    Вы не можете начинать темы
    Вы не можете отвечать на сообщения
    Вы не можете редактировать свои сообщения
    Вы не можете удалять свои сообщения
    Вы не можете голосовать в опросах
    Вы не можете прикреплять файлы к сообщениям
    Вы можете скачивать файлы