Ссылка на приватное зеркало всего за 1$. Внимание количество ограничено!!!

OK

1+1

iTunes

мы

OK

1

WEB-DLRip

Джокер

Пифагор

Ведьмак / The Witcher сериал

iTunes

ПШазам

ОК

Оно 2

iTunes

30
pack

Вам бонус

ВАЖНО

!!Акция!!

Alien_RageХит недели

RePack

Resident Evil 21

ИГРА 18+

pack

RePack

jed

RePack

fifa19

RePack

Assassins Creed: Odyssey

RePack

NEED FOR SPEED™ PAYBACK

4 сезон

9 сезон

Бесстыжие 9 сезон

Все сериалы

все сериалы на PB.wtf

RePack

FAR CRY 5
  

Светлое будущее 2018 /A Better Tomorrow 2018 / Ying xiong ben se 2018 (Дин Шэн) [2018 г., Боевик, драма, криминал, HDRip, Любительский (многоголосый)(КОЛОБОК)] pb.wtf

Светлое будущее 2018 через торрент pb.wtf

Размер: 1.43 GB | Добавлен: 1 год 4 мес. назад | Торрент скачан:69 раз
Скачать  

20-09-2018 03:23 Светлое будущее 2018 Скачать торрент  

Светлое будущее 2018 / A Better Tomorrow 2018 / Ying xiong ben se 2018
Год выпуска: 2018
Страна: Китай / Beijing Skywheel Entertainment Co.
Жанр: Боевик, драма, криминал
Продолжительность: 01:53:31
Перевод: Любительский (многоголосый)(КОЛОБОК)
Субтитры: Отсутствуют

Режиссер: Дин Шэн

rating

В ролях: Ван Кай, Ма Тяньюй, Даррен Ван, Юй Айлэй, Лам Сует, У Юэ, Ли Миньчэн, Эрик Цан ...

Описание: История о друзьях, один из которых сел в тюрьму за контрабанду наркотиков, а через три года вышел и решил завязать с преступным прошлым. Шанс на искупление появляется, когда герою предоставляется возможность помочь брату-полицейскому поймать крупного наркоторговца.

Доп. информация: Присутствуют вставки текстовой рекламы

Качество: HDRip
Формат: AVI
Видео кодек: XviD
Аудио кодек: AC3
Видео: XviD, 720x304, ~1597 Kbps
Аудио#1: AC-3, 2 ch, 192 Kbps
скриншот   скриншот   скриншот   скриншот  

Общее
Полное имя : C:\_Cinema 2\Светлое будущее\A Better Tomorrow 2018 HDRip.avi
Формат : AVI
Формат/Информация : Audio Video Interleave
Профиль формата : OpenDML
Размер файла : 1,43 Гбайт
Продолжительность : 1 ч. 53 м.
Общий поток : 1801 Кбит/сек

Видео
Идентификатор : 0
Формат : MPEG-4 Visual
Профиль формата : Advanced Simple@L5
Параметр BVOP формата : 2
Параметр QPel формата : Нет
Параметр GMC формата : Без точки перехода
Параметр матрицы формата : Default (MPEG)
Идентификатор кодека : XVID
Идентификатор кодека/Подсказка : XviD
Продолжительность : 1 ч. 53 м.
Битрейт : 1597 Кбит/сек
Ширина : 720 пикселей
Высота : 304 пикселя
Соотношение сторон : 2,35:1
Частота кадров : 23,976 (24000/1001) кадра/сек
Цветовое пространство : YUV
Субдискретизация насыщенности : 4:2:0
Битовая глубина : 8 бит
Тип развёртки : Прогрессивная
Метод сжатия : С потерями
Бит/(Пиксели*Кадры) : 0.304
Размер потока : 1,27 Гбайт (89%)
Библиотека кодирования : XviD 1.2.1 (UTC 2008-12-04)

Аудио
Идентификатор : 1
Формат : AC-3
Формат/Информация : Audio Coding 3
Расширение режима : CM (complete main)
Параметр Endianness формата : Big
Идентификатор кодека : 2000
Продолжительность : 1 ч. 53 м.
Вид битрейта : Постоянный
Битрейт : 192 Кбит/сек
Каналы : 2 канала
Расположение каналов : Front: L R
Частота : 48,0 КГц
Частота кадров : 31,250 кадров/сек (1536 spf)
Метод сжатия : С потерями
Размер потока : 156 Мбайт (11%)
Выравнивание : Соединение по промежуткам
Продолжительность промежутка : 32 мс. (0,77 видеокадр)

pb.wtf



Скачать Светлое будущее 2018 через торрент http://pic1.kartinco.top/images/11/qpfnb.jpg Скачать фильм Светлое будущее 2018 через торрент бесплантно в хорошем качестве Описание: История о друзьях, один из которых сел в тюрьму за контрабанду наркотиков, а через три года вышел и решил завязать с преступным ... 10 10 2
Торрент: Зарегистрирован [2018-09-20 03:23] · скачан: 69 раз
Статус: T временная
Размер: 1.43 GB
Как cкачать? Как скачать Светлое будущее 2018 через торрент | qTorrent

28-11-2019 20:33  

Отключить всю рекламу на сайте

    Дорогой пользователь! Огромная просьба, поблагодарите релизера, оцените раздачу и оставьте свои комментарий, если Вы скачали Светлое будущее 2018 через торрент бесплатно! Внесите свою лепту в развитие PiratBit!
    Комментировать посты могут только пользователи прошедшие не сложную регистрацию
    Показать сообщения:    

    Светлое будущее 2018 через торрент
    Скачать бесплатно Светлое будущее 2018
    Светлое будущее 2018 скачать торрент
    Светлое будущее 2018 смотреть онлайн
    Cкачать фильм Светлое будущее 2018 бесплатно
    Светлое будущее 2018 скачать торрент в хорошем качестве
    Светлое будущее 2018 смотреть онлайн бесплатно в хорошем качестве


    Вы не можете начинать темы
    Вы не можете отвечать на сообщения
    Вы не можете редактировать свои сообщения
    Вы не можете удалять свои сообщения
    Вы не можете голосовать в опросах
    Вы не можете прикреплять файлы к сообщениям
    Вы можете скачивать файлы