Ссылка на приватное зеркало всего за 1$. Внимание количество ограничено!!!

OK

1+1

iTunes

мы

OK

1

WEB-DLRip

Джокер

Пифагор

Ведьмак / The Witcher сериал

iTunes

ПШазам

ОК

Оно 2

iTunes

30
pack

Вам бонус

ВАЖНО

!!Акция!!

Alien_RageХит недели

RePack

Resident Evil 21

ИГРА 18+

pack

RePack

jed

RePack

fifa19

RePack

Assassins Creed: Odyssey

RePack

NEED FOR SPEED™ PAYBACK

4 сезон

9 сезон

Бесстыжие 9 сезон

Все сериалы

все сериалы на PB.wtf

RePack

FAR CRY 5
  

Порочные от природы / Natural Viсе (Иззи Трауб) [2018 г., Боевик, WEB-DLRip, Любительский (многоголосый)(Синема УС)] pb.wtf

Порочные от природы через торрент pb.wtf

Размер: 1.29 GB | Добавлен: 1 год 4 мес. назад | Торрент скачан:72 раза
Скачать  

20-09-2018 03:32 Порочные от природы Скачать торрент  

Порочные от природы / Natural Viсе
Год выпуска: 2018
Страна: США / Prodigium Pictures
Жанр: Боевик
Продолжительность: 01:21:11
Перевод: Любительский (многоголосый)(Синема УС)
Субтитры: Отсутствуют

Режиссер: Иззи Трауб

rating

В ролях: Брент Харви, Джованна Николь, Аллен Теоски Роу, Ария Эмори, Энтони Фикко, Ивонн Лу, Ади Шаку, Джон Комп Шин, Руфино Ромеро, Доминик Вэнс

Описание: Адам и его команда технократов зарабатывают на продаже уникальных наркотических таблеток через мафиозные сети по всему миру. Один из китайских распространителей решает обмануть систему, скрыв от них часть прибыли, и платит за это головой. Однако, ребята не знают, что родной брат убитого ими мелкого рэкетира является главой одной из китайских триад, и он принял убийство родственника слишком близко к сердцу.

Доп. информация: Присутствуют вставки текстовой рекламы

Качество: WEB-DLRip
Формат: AVI
Видео кодек: XviD
Аудио кодек: AC3
Видео: XviD, 720x304, ~1885 Kbps
Аудио#1: AC-3, 2 ch, 384 Kbps
скриншот   скриншот   скриншот   скриншот  

Общее
Полное имя : D:\_Cinema\Порочные от природы\Natural Viсе 2018 WEB-DLRip.avi
Формат : AVI
Формат/Информация : Audio Video Interleave
Профиль формата : OpenDML
Размер файла : 1,29 Гбайт
Продолжительность : 1 ч. 21 м.
Общий поток : 2282 Кбит/сек

Видео
Идентификатор : 0
Формат : MPEG-4 Visual
Профиль формата : Advanced Simple@L5
Параметр BVOP формата : 2
Параметр QPel формата : Нет
Параметр GMC формата : Без точки перехода
Параметр матрицы формата : Выборочная
Идентификатор кодека : XVID
Идентификатор кодека/Подсказка : XviD
Продолжительность : 1 ч. 21 м.
Битрейт : 1885 Кбит/сек
Ширина : 720 пикселей
Высота : 304 пикселя
Соотношение сторон : 2,35:1
Частота кадров : 23,976 (24000/1001) кадра/сек
Цветовое пространство : YUV
Субдискретизация насыщенности : 4:2:0
Битовая глубина : 8 бит
Тип развёртки : Прогрессивная
Метод сжатия : С потерями
Бит/(Пиксели*Кадры) : 0.359
Размер потока : 1,07 Гбайт (83%)
Библиотека кодирования : XviD 1.2.1 (UTC 2008-12-04)

Аудио
Идентификатор : 1
Формат : AC-3
Формат/Информация : Audio Coding 3
Расширение режима : CM (complete main)
Параметр Endianness формата : Big
Идентификатор кодека : 2000
Продолжительность : 1 ч. 21 м.
Вид битрейта : Постоянный
Битрейт : 384 Кбит/сек
Каналы : 2 канала
Расположение каналов : Front: L R
Частота : 48,0 КГц
Частота кадров : 31,250 кадров/сек (1536 spf)
Метод сжатия : С потерями
Размер потока : 223 Мбайт (17%)
Выравнивание : Соединение по промежуткам
Продолжительность промежутка : 32 мс. (0,77 видеокадр)

pb.wtf



Скачать Порочные от природы через торрент http://pic1.kartinco.top/images/11/1j5kn.jpg Скачать фильм Порочные от природы через торрент бесплантно в хорошем качестве Описание: Адам и его команда технократов зарабатывают на продаже уникальных наркотических таблеток через мафиозные сети по всему миру. Один ... 8.5 10 2
Торрент: Зарегистрирован [2018-09-20 03:32] · скачан: 72 раз
Статус: T временная
Размер: 1.29 GB
Как cкачать? Как скачать Порочные от природы через торрент | qTorrent

28-11-2019 20:33  

Отключить всю рекламу на сайте

    Дорогой пользователь! Огромная просьба, поблагодарите релизера, оцените раздачу и оставьте свои комментарий, если Вы скачали Порочные от природы через торрент бесплатно! Внесите свою лепту в развитие PiratBit!
    Комментировать посты могут только пользователи прошедшие не сложную регистрацию
    Показать сообщения:    

    Порочные от природы через торрент
    Скачать бесплатно Порочные от природы
    Порочные от природы скачать торрент
    Порочные от природы смотреть онлайн
    Cкачать фильм Порочные от природы бесплатно
    Порочные от природы скачать торрент в хорошем качестве
    Порочные от природы смотреть онлайн бесплатно в хорошем качестве


    Вы не можете начинать темы
    Вы не можете отвечать на сообщения
    Вы не можете редактировать свои сообщения
    Вы не можете удалять свои сообщения
    Вы не можете голосовать в опросах
    Вы не можете прикреплять файлы к сообщениям
    Вы можете скачивать файлы