Ссылка на приватное зеркало всего за 1$. Внимание количество ограничено!!!

OK

1+1

iTunes

мы

OK

1

WEB-DLRip

Джокер

Пифагор

Ведьмак / The Witcher сериал

iTunes

ПШазам

ОК

Оно 2

iTunes

30
pack

Вам бонус

ВАЖНО

!!Акция!!

Alien_RageХит недели

RePack

Resident Evil 21

ИГРА 18+

pack

RePack

jed

RePack

fifa19

RePack

Assassins Creed: Odyssey

RePack

NEED FOR SPEED™ PAYBACK

4 сезон

9 сезон

Бесстыжие 9 сезон

Все сериалы

все сериалы на PB.wtf

RePack

FAR CRY 5
  

Тёмное пробуждение / Black Wake (Джереми Кипп) [2018 г., Ужасы, фантастика, триллер, WEB-DLRip, Любительский (многоголосый) (Синема УС)] pb.wtf

Тёмное пробуждение через торрент pb.wtf

Размер: 1.33 GB | Добавлен: 1 год 4 мес. назад | Торрент скачан:133 раза
Скачать  

20-09-2018 04:01 Тёмное пробуждение Скачать торрент  

Тёмное пробуждение / Black Wake
Год выпуска: 2018
Страна: США / Black Wake Enterprises,Carlos Keyes Film Entertainment
Жанр: Ужасы, фантастика, триллер
Продолжительность: 01:30:58
Перевод: Любительский (многоголосый)(Синема УС)
Субтитры: Отсутствуют

Режиссер: Джереми Кипп

rating

В ролях: Нана Гувеа, Том Сайзмор, Эрик Робертс, Джонни Бошан, Винсент Пасторе, Чак Цито, Дж. В. Кортес, Бретт Азар, Рич Графф, Дэвид Гир

Описание: Группа учёных собирается в сверхсекретном исследовательском институте для того, чтобы расследовать и установить причину смерти людей, тела которых стали регулярно находить на побережье Атлантического океана. В то время, как полицейские считают, что убийства - дело рук серийного маньяка, главная героиня ленты, доктор Луиза Морейра, в процессе изучения вещественных доказательств с мест преступления, понимает, на самом деле человечеству угрожает могущественное и древнее зло.

Доп. информация: Присутствуют вставки текстовой рекламы

Качество: WEB-DLRip
Формат: AVI
Видео кодек: XviD
Аудио кодек: AC3
Видео: XviD, 720x400, ~1697 Kbps
Аудио#1: AC-3, 2 ch, 384 Kbps
скриншот   скриншот   скриншот   скриншот  

Общее
Полное имя : C:\_Cinema 2\Тёмное пробуждение\Black Wake 2018 WEB-DLRip.avi
Формат : AVI
Формат/Информация : Audio Video Interleave
Профиль формата : OpenDML
Размер файла : 1,33 Гбайт
Продолжительность : 1 ч. 30 м.
Общий поток : 2094 Кбит/сек

Видео
Идентификатор : 0
Формат : MPEG-4 Visual
Профиль формата : Advanced Simple@L5
Параметр BVOP формата : 2
Параметр QPel формата : Нет
Параметр GMC формата : Без точки перехода
Параметр матрицы формата : Выборочная
Идентификатор кодека : XVID
Идентификатор кодека/Подсказка : XviD
Продолжительность : 1 ч. 30 м.
Битрейт : 1697 Кбит/сек
Ширина : 720 пикселей
Высота : 400 пикселей
Соотношение сторон : 16:9
Частота кадров : 23,976 (24000/1001) кадра/сек
Цветовое пространство : YUV
Субдискретизация насыщенности : 4:2:0
Битовая глубина : 8 бит
Тип развёртки : Прогрессивная
Метод сжатия : С потерями
Бит/(Пиксели*Кадры) : 0.246
Размер потока : 1,08 Гбайт (81%)
Библиотека кодирования : XviD 1.2.1 (UTC 2008-12-04)

Аудио
Идентификатор : 1
Формат : AC-3
Формат/Информация : Audio Coding 3
Расширение режима : CM (complete main)
Параметр Endianness формата : Big
Идентификатор кодека : 2000
Продолжительность : 1 ч. 30 м.
Вид битрейта : Постоянный
Битрейт : 384 Кбит/сек
Каналы : 2 канала
Расположение каналов : Front: L R
Частота : 48,0 КГц
Частота кадров : 31,250 кадров/сек (1536 spf)
Метод сжатия : С потерями
Размер потока : 250 Мбайт (18%)
Выравнивание : Соединение по промежуткам
Продолжительность промежутка : 32 мс. (0,77 видеокадр)

pb.wtf



Скачать Тёмное пробуждение через торрент http://pic1.kartinco.top/images/11/rep3v.jpg Скачать фильм Тёмное пробуждение через торрент бесплантно в хорошем качестве Описание: Группа учёных собирается в сверхсекретном исследовательском институте для того, чтобы расследовать и установить причину смерти ... 10 10 7
Торрент: Зарегистрирован [2018-09-20 04:01] · скачан: 133 раз
Статус: T временная
Размер: 1.33 GB
Как cкачать? Как скачать Тёмное пробуждение через торрент | qTorrent

% Раздел Тема Автор DL S | L
T Фильмы (мультфильмы) cо спонсором показа (Новинки AVI/MKV) [ 3.02 GB ] Тёмное пробуждение / Black Wake [2018 WEB-DL 720p] MVO ["Синема УС"] bober100 Скачать
1 | 0

28-11-2019 20:33  

Отключить всю рекламу на сайте

20-09-2018 04:32 Тёмное пробуждение Скачать торрент  

Эрик Робертс - гарантия плохого кино, качать не стану, за раздачу - спасибо! pb.wtf



20-09-2018 06:24 Тёмное пробуждение Скачать торрент  

brusser1993 писал(а):

Эрик Робертс - гарантия плохого кино, качать не стану, за раздачу - спасибо!

и целлюлит на 4 скрине...ну и рейтинг тоже...pb.wtf



20-09-2018 06:42 Тёмное пробуждение Скачать торрент  

bolvi68 писал(а):

целлюлит на 4 скрине...

где?
или фантазия хорошо работает, или зрение "интерполярное" - в таком разрешении рассмотреть "апельсиновую корку"...
хотя, вероятнее всего - проблемы с личными предпочтениями и пониманием самого термина "целлюлит"pb.wtf



20-09-2018 06:43 Тёмное пробуждение Скачать торрент  

а вот обложка - многобещающая, будь это епонский синематографpb.wtf



21-09-2018 06:30 Тёмное пробуждение Скачать торрент  

brusser1993 писал(а):

Эрик Робертс - гарантия плохого кино, качать не стану, за раздачу - спасибо!

pb.wtf



    Дорогой пользователь! Огромная просьба, поблагодарите релизера, оцените раздачу и оставьте свои комментарий, если Вы скачали Тёмное пробуждение через торрент бесплатно! Внесите свою лепту в развитие PiratBit!
    Комментировать посты могут только пользователи прошедшие не сложную регистрацию
    Показать сообщения:    

    Тёмное пробуждение через торрент
    Скачать бесплатно Тёмное пробуждение
    Тёмное пробуждение скачать торрент
    Тёмное пробуждение смотреть онлайн
    Cкачать фильм Тёмное пробуждение бесплатно
    Тёмное пробуждение скачать торрент в хорошем качестве
    Тёмное пробуждение смотреть онлайн бесплатно в хорошем качестве


    Вы не можете начинать темы
    Вы не можете отвечать на сообщения
    Вы не можете редактировать свои сообщения
    Вы не можете удалять свои сообщения
    Вы не можете голосовать в опросах
    Вы не можете прикреплять файлы к сообщениям
    Вы можете скачивать файлы