Ссылка на приватное зеркало всего за 1$. Внимание количество ограничено!!!

OK

1+1

iTunes

мы

OK

1

WEB-DLRip

Джокер

Пифагор

Ведьмак / The Witcher сериал

Лицензия

ПШазам

ОК

Оно 2

iTunes

30
pack

Вам бонус

ВАЖНО

!!Акция!!

Alien_RageХит недели

RePack

Resident Evil 21

ИГРА 18+

pack

RePack

jed

RePack

fifa19

RePack

Assassins Creed: Odyssey

RePack

NEED FOR SPEED™ PAYBACK

4 сезон

9 сезон

Бесстыжие 9 сезон

Все сериалы

все сериалы на PB.wtf

RePack

FAR CRY 5
  

451 градус по Фаренгейту / Fahrenheit 451 (Рамин Бахрани) [2018, Фантастика, драма, BD Remux 1080p] 3xMVO [Amedia, HDrezka Studio, NewStudio] pb.wtf

451 градус по Фаренгейту через торрент pb.wtf

Размер: 26.62 GB | Добавлен: 1 год 4 мес. назад | Торрент скачан:30 раз
Скачать  

20-09-2018 04:36 451 градус по Фаренгейту Скачать торрент  

451 градус по Фаренгейту / Fahrenheit 451«Знание — опасная вещь»
Год выпуска: 2018
Страна: США
Жанр: Фантастика, драма
Продолжительность: 01:40:14
Перевод:

Профессиональный (многоголосый, закадровый) | Amedia
Профессиональный (многоголосый, закадровый) | HDrezka Studio
Профессиональный (многоголосый, закадровый) | NewStudio

Субтитры: Русские (Forced & Full), английские

Режиссер: Рамин Бахрани

rating

В ролях:

Майкл Б. Джордан, София Бутелла, Майкл Шеннон, Кир Дуллеа, Кэнди Александр, Мартин Донован, Лилли Сингх, Мэйко Нгуйен, Джо Пинг, Грэйс Линн Кунг

Описание:

В некоем тоталитарном обществе история переписывается, книги безжалостно сжигаются, а их чтение преследуется по закону. После встречи с юной Клариссой «пожарный» Гай Монтэг меняет свои убеждения и начинает противостоять суровому брандмейстеру Битти.

Качество: BD Remux 1080p
Формат: MKV

Видео: 1920x1080 (16:9), 23.976 fps, MPEG-4 AVC ~33.4 Мbps avg
Аудио#1: 48.0 kHz, AC3 Dolby Digital, 3/2 (L,C,R,l,r) + LFE ch, ~384 kbps | RUS / MVO / Amedia
Аудио#2: 48.0 kHz, AC3 Dolby Digital, 2/0 (L,R) ch, ~192 kbps | RUS / MVO / HDrezka Studio
Аудио#3: 48.0 kHz, AC3 Dolby Digital, 3/2 (L,C,R,l,r) + LFE ch, ~384 kbps | RUS / MVO / NewStudio
Аудио#4: 48.0 kHz, Digital Theater Systems Master Audio, 3/2 (L,C,R,l,r) + LFE ch, ~3594 kbps / 24 bits | ENG
скриншот  скриншот  скриншот  

Unique ID : 231089292335139853684276999514972273242 (0xADDA2DC56A02AAD46E35E7BE6A30BA5A)
Complete name : Fahrenheit.451.2018.REMUX.mkv
Format : Matroska
Format version : Version 4 / Version 2
File size : 26.6 GiB
Duration : 1 h 40 min
Overall bit rate mode : Variable
Overall bit rate : 38.0 Mb/s
Encoded date : UTC 2018-09-19 20:34:45
Writing application : mkvmerge v20.0.0 ('I Am The Sun') 64-bit
Writing library : libebml v1.3.5 + libmatroska v1.4.8

Video
ID : 1
Format : AVC
Format/Info : Advanced Video Codec
Format profile : High@L4.1
Format settings : CABAC / 4 Ref Frames
Format settings, CABAC : Yes
Format settings, RefFrames : 4 frames
Format settings, GOP : M=3, N=12
Codec ID : V_MPEG4/ISO/AVC
Duration : 1 h 40 min
Bit rate mode : Variable
Bit rate : 33.4 Mb/s
Maximum bit rate : 38.0 Mb/s
Width : 1 920 pixels
Height : 1 080 pixels
Display aspect ratio : 16:9
Frame rate mode : Constant
Frame rate : 23.976 (24000/1001) FPS
Color space : YUV
Chroma subsampling : 4:2:0
Bit depth : 8 bits
Scan type : Progressive
Bits/(Pixel*Frame) : 0.672
Stream size : 23.4 GiB (88%)
Language : English
Default : Yes
Forced : No

Audio #1
ID : 2
Format : AC-3
Format/Info : Audio Coding 3
Codec ID : A_AC3
Duration : 1 h 40 min
Bit rate mode : Constant
Bit rate : 384 kb/s
Channel(s) : 6 channels
Channel positions : Front: L C R, Side: L R, LFE
Sampling rate : 48.0 kHz
Frame rate : 31.250 FPS (1536 SPF)
Bit depth : 16 bits
Compression mode : Lossy
Stream size : 276 MiB (1%)
Title : Amedia
Language : Russian
Service kind : Complete Main
Default : Yes
Forced : No

Audio #2
ID : 3
Format : AC-3
Format/Info : Audio Coding 3
Codec ID : A_AC3
Duration : 1 h 40 min
Bit rate mode : Constant
Bit rate : 192 kb/s
Channel(s) : 2 channels
Channel positions : Front: L R
Sampling rate : 48.0 kHz
Frame rate : 31.250 FPS (1536 SPF)
Bit depth : 16 bits
Compression mode : Lossy
Stream size : 138 MiB (1%)
Title : HDRezka
Language : Russian
Service kind : Complete Main
Default : No
Forced : No

Audio #3
ID : 4
Format : AC-3
Format/Info : Audio Coding 3
Codec ID : A_AC3
Duration : 1 h 40 min
Bit rate mode : Constant
Bit rate : 384 kb/s
Channel(s) : 6 channels
Channel positions : Front: L C R, Side: L R, LFE
Sampling rate : 48.0 kHz
Frame rate : 31.250 FPS (1536 SPF)
Bit depth : 16 bits
Compression mode : Lossy
Stream size : 276 MiB (1%)
Title : NewStudio
Language : Russian
Service kind : Complete Main
Default : No
Forced : No

Audio #4
ID : 5
Format : DTS
Format/Info : Digital Theater Systems
Format profile : MA / Core
Codec ID : A_DTS
Duration : 1 h 40 min
Bit rate mode : Variable / Constant
Bit rate : 3 594 kb/s / 1 509 kb/s
Channel(s) : 6 channels
Channel positions : Front: L C R, Side: L R, LFE
Sampling rate : 48.0 kHz
Frame rate : 93.750 FPS (512 SPF)
Bit depth : 24 bits
Compression mode : Lossless / Lossy
Stream size : 2.52 GiB (9%)
Language : English
Default : No
Forced : No

Text #1
ID : 6
Format : UTF-8
Codec ID : S_TEXT/UTF8
Codec ID/Info : UTF-8 Plain Text
Duration : 1 h 40 min
Bit rate : 4 b/s
Count of elements : 67
Stream size : 3.32 KiB (0%)
Title : forced
Language : Russian
Default : Yes
Forced : Yes

Text #2
ID : 7
Format : UTF-8
Codec ID : S_TEXT/UTF8
Codec ID/Info : UTF-8 Plain Text
Duration : 1 h 34 min
Bit rate : 73 b/s
Count of elements : 1057
Stream size : 51.4 KiB (0%)
Language : Russian
Default : No
Forced : No

Text #3
ID : 8
Format : UTF-8
Codec ID : S_TEXT/UTF8
Codec ID/Info : UTF-8 Plain Text
Duration : 1 h 32 min
Bit rate : 49 b/s
Count of elements : 1072
Stream size : 33.9 KiB (0%)
Language : English
Default : No
Forced : No

Menu
00:00:00.000 : en:Chapter 1
00:02:32.152 : en:Chapter 2
00:11:46.873 : en:Chapter 3
00:20:31.856 : en:Chapter 4
00:26:28.504 : en:Chapter 5
00:35:54.152 : en:Chapter 6
00:44:01.806 : en:Chapter 7
00:52:45.204 : en:Chapter 8
01:01:59.507 : en:Chapter 9
01:08:23.266 : en:Chapter 10
01:17:46.996 : en:Chapter 11
01:27:06.054 : en:Chapter 12
01:37:54.368 : en:Chapter 13

pb.wtf



Скачать 451 градус по Фаренгейту через торрент http://d.radikal.ru/d22/1809/2c/3d2853fb8e31.png Скачать фильм 451 градус по Фаренгейту через торрент бесплантно в хорошем качестве Описание: В некоем тоталитарном обществе история переписывается, книги безжалостно сжигаются, а их чтение преследуется по закону. После ... 10 10 4
Торрент: Зарегистрирован [2018-09-20 04:36] · скачан: 30 раз
Статус: √ проверено
Размер: 26.62 GB
Как cкачать? Как скачать 451 градус по Фаренгейту через торрент | qTorrent

% Раздел Тема Автор DL S | L
Фильмы 2018 [DVDrip, WEB-DLRip, HDrip] (DUB, MVO) [ 1.42 GB ] 451 градус по Фаренгейту / Fahrenheit 451 [2018 BDRip] MVO [Amedia] Twi7ter Скачать
3 | 0
Фильмы [HD 720p, 1080p] (Хороший звук DUB, MVO) [ 6.2 GB ] 451 градус по Фаренгейту / Fahrenheit 451 [2018 BDRip 720p] 2xMVO [Amedia NewStudio] bober100 Скачать
1 | 0
Фильмы 2018 [DVDrip, WEB-DLRip, HDrip] (DUB, MVO) [ 1.46 GB ] 451 градус по Фаренгейту / Fahrenheit 451 [2018 BDRip-AVC] MVO [Amedia] bober100 Скачать
3 | 0
Фильмы [HD 720p, 1080p] (Хороший звук DUB, MVO) [ 13.27 GB ] 451 градус по Фаренгейту / Fahrenheit 451 [2018 BDRip 1080p] 2xMVO [Amedia NewStudio] bober100 Скачать
1 | 0
Фильмы 2018 [DVDrip, WEB-DLRip, HDrip] (DUB, MVO) [ 1.45 GB ] 451 градус по Фаренгейту / Fahrenheit 451 [2018 WEB-DLRip] MVO [Amedia] bober100 Скачать
1 | 0
Фильмы (WEB-DL 720p, 1080p) [ 2.92 GB ] 451 градус по Фаренгейту / Fahrenheit 451 [2018 WEB-DL 720p] 2xMVO [Amedia NewStudio] bober100 Скачать
2 | 0
R.G. Resident & PiratVoice - Фильмы, Видео [ 2.05 GB ] 451 градус по Фаренгейту / Fahrenheit 451 [2018 WEB-DLRip от R.G. Resident] MVO [Amedia] -Lexx- Скачать
1 | 0


Последний раз редактировалось: bober100 (2018-09-21 05:24), всего редактировалось 1 раз

28-11-2019 20:33  

Отключить всю рекламу на сайте

20-09-2018 18:43 451 градус по Фаренгейту Скачать торрент  

Чья озвучка лучше??pb.wtf



    Дорогой пользователь! Огромная просьба, поблагодарите релизера, оцените раздачу и оставьте свои комментарий, если Вы скачали 451 градус по Фаренгейту через торрент бесплатно! Внесите свою лепту в развитие PiratBit!
    Комментировать посты могут только пользователи прошедшие не сложную регистрацию
    Показать сообщения:    

    451 градус по Фаренгейту через торрент
    Скачать бесплатно 451 градус по Фаренгейту
    451 градус по Фаренгейту скачать торрент
    451 градус по Фаренгейту смотреть онлайн
    Cкачать фильм 451 градус по Фаренгейту бесплатно
    451 градус по Фаренгейту скачать торрент в хорошем качестве
    451 градус по Фаренгейту смотреть онлайн бесплатно в хорошем качестве


    Вы не можете начинать темы
    Вы не можете отвечать на сообщения
    Вы не можете редактировать свои сообщения
    Вы не можете удалять свои сообщения
    Вы не можете голосовать в опросах
    Вы не можете прикреплять файлы к сообщениям
    Вы можете скачивать файлы