Ссылка на приватное зеркало всего за 1$. Внимание количество ограничено!!!

OK

1+1

iTunes

мы

OK

1

WEB-DLRip

Джокер

Пифагор

Ведьмак / The Witcher сериал

Лицензия

ПШазам

ОК

Оно 2

iTunes

30
pack

Вам бонус

ВАЖНО

!!Акция!!

Alien_RageХит недели

RePack

Resident Evil 21

ИГРА 18+

pack

RePack

jed

RePack

fifa19

RePack

Assassins Creed: Odyssey

RePack

NEED FOR SPEED™ PAYBACK

4 сезон

9 сезон

Бесстыжие 9 сезон

Все сериалы

все сериалы на PB.wtf

RePack

FAR CRY 5
  

451 градус по Фаренгейту / Fahrenheit 451 (Рамин Бахрани) [2018, Фантастика, драма, BDRip 1080p] 2xMVO [Amedia, NewStudio] pb.wtf

451 градус по Фаренгейту через торрент pb.wtf

Размер: 13.27 GB | Добавлен: 1 год 4 мес. назад | Торрент скачан:238 раз
Скачать  

20-09-2018 05:07 451 градус по Фаренгейту Скачать торрент  

451 градус по Фаренгейту / Fahrenheit 451«Знание — опасная вещь»
Год выпуска: 2018
Страна: США
Жанр: Фантастика, драма
Продолжительность: 01:40:14
Перевод:

Профессиональный (многоголосый, закадровый) | Amedia
Профессиональный (многоголосый, закадровый) | NewStudio

Субтитры: русские (full + forced), английские

Режиссер: Рамин Бахрани

rating

В ролях:

Майкл Б. Джордан, София Бутелла, Майкл Шеннон, Кир Дуллеа, Кэнди Александр, Мартин Донован, Лилли Сингх, Мэйко Нгуйен, Джо Пинг, Грэйс Линн Кунг

Описание:

В некоем тоталитарном обществе история переписывается, книги безжалостно сжигаются, а их чтение преследуется по закону. После встречи с юной Клариссой «пожарный» Гай Монтэг меняет свои убеждения и начинает противостоять суровому брандмейстеру Битти.

Качество: BDRip 1080p
Формат: MKV

Видео: 1920x1080 (16:9), 23.976 fps, MPEG-4 AVC ~16.7 Mbps avg
Аудио#1: 48.0 kHz, AC3 Dolby Digital, 3/2 (L,C,R,l,r) + LFE ch, ~384 kbps | RUS / MVO / Amedia
Аудио#2: 48.0 kHz, AC3 Dolby Digital, 3/2 (L,C,R,l,r) + LFE ch, ~384 kbps | RUS / MVO / NewStudio
Аудио#3: 48.0 kHz, Digital Theater Systems Master Audio, 3/2 (L,C,R,l,r) + LFE ch, ~3594 kbps / 24 bits | ENG
скриншот  скриншот  скриншот  

General
Unique ID : 192380386226595234658117102324203457953 (0x90BB1D5A01F71835834F24B1C4CD0DA1)
Complete name : Fahrenheit.451.2018.bdriP.108Op.werecut.PROD.mkv
Format : Matroska
Format version : Version 4 / Version 2
File size : 13.3 GiB
Duration : 1 h 40 min
Overall bit rate : 18.9 Mb/s
Movie name : Fahrenheit 451 2018 OT werecut PROD.
Encoded date : UTC 2018-09-19 16:03:00
Writing application : mkvmerge v7.3.0 ('Nouages') 64bit built on Oct 22 2014 18:53:34
Writing library : libebml v1.3.0 + libmatroska v1.4.1

Video
ID : 1
Format : AVC
Format/Info : Advanced Video Codec
Format profile : High@L4.1
Format settings : CABAC / 4 Ref Frames
Format settings, CABAC : Yes
Format settings, ReFrames : 4 frames
Codec ID : V_MPEG4/ISO/AVC
Duration : 1 h 40 min
Bit rate : 16.7 Mb/s
Width : 1 920 pixels
Height : 1 080 pixels
Display aspect ratio : 16:9
Frame rate mode : Constant
Frame rate : 23.976 (24000/1001) FPS
Color space : YUV
Chroma subsampling : 4:2:0
Bit depth : 8 bits
Scan type : Progressive
Bits/(Pixel*Frame) : 0.335
Stream size : 11.7 GiB (88%)
Writing library : x264 core 155 r2893 b00bcaf
Encoding settings : cabac=1 / ref=4 / deblock=1:-3:-3 / analyse=0x3:0x113 / me=umh / subme=10 / psy=1 / psy_rd=1.00:0.05 / mixed_ref=1 / me_range=48 / chroma_me=1 / trellis=2 / 8x8dct=1 / cqm=0 / deadzone=21,11 / fast_pskip=0 / chroma_qp_offset=-2 / threads=18 / lookahead_threads=3 / sliced_threads=0 / nr=0 / decimate=1 / interlaced=0 / bluray_compat=0 / constrained_intra=0 / bframes=8 / b_pyramid=2 / b_adapt=2 / b_bias=0 / direct=3 / weightb=1 / open_gop=0 / weightp=2 / keyint=250 / keyint_min=23 / scenecut=40 / intra_refresh=0 / rc_lookahead=40 / rc=crf / mbtree=0 / crf=18.0 / qcomp=0.60 / qpmin=0 / qpmax=69 / qpstep=4 / vbv_maxrate=50000 / vbv_bufsize=45000 / crf_max=0.0 / nal_hrd=none / filler=0 / ip_ratio=1.40 / pb_ratio=1.30 / aq=3:1.00
Language : English
Default : Yes
Forced : No
Color range : Limited
Matrix coefficients : BT.709

Audio #1
ID : 2
Format : AC-3
Format/Info : Audio Coding 3
Commercial name : Dolby Digital
Codec ID : A_AC3
Duration : 1 h 40 min
Bit rate mode : Constant
Bit rate : 384 kb/s
Channel(s) : 6 channels
Channel layout : L R C LFE Ls Rs
Sampling rate : 48.0 kHz
Frame rate : 31.250 FPS (1536 SPF)
Bit depth : 16 bits
Compression mode : Lossy
Stream size : 276 MiB (2%)
Title : Amedia
Language : Russian
Service kind : Complete Main
Default : Yes
Forced : Yes

Audio #2
ID : 3
Format : AC-3
Format/Info : Audio Coding 3
Commercial name : Dolby Digital
Codec ID : A_AC3
Duration : 1 h 40 min
Bit rate mode : Constant
Bit rate : 384 kb/s
Channel(s) : 6 channels
Channel layout : L R C LFE Ls Rs
Sampling rate : 48.0 kHz
Frame rate : 31.250 FPS (1536 SPF)
Bit depth : 16 bits
Compression mode : Lossy
Stream size : 276 MiB (2%)
Title : NewStudio
Language : Russian
Service kind : Complete Main
Default : No
Forced : No

Audio #3
ID : 4
Format : DTS
Format/Info : Digital Theater Systems
Codec ID : A_DTS
Duration : 1 h 40 min
Bit rate mode : Constant
Bit rate : 1 509 kb/s
Channel(s) : 6 channels
Channel layout : C L R Ls Rs LFE
Sampling rate : 48.0 kHz
Frame rate : 93.750 FPS (512 SPF)
Bit depth : 24 bits
Compression mode : Lossy
Stream size : 1.06 GiB (8%)
Language : English
Default : No
Forced : No

Text #1
ID : 5
Format : UTF-8
Codec ID : S_TEXT/UTF8
Codec ID/Info : UTF-8 Plain Text
Duration : 1 h 39 min
Bit rate : 4 b/s
Count of elements : 65
Stream size : 3.14 KiB (0%)
Language : Russian
Default : Yes
Forced : Yes

Text #2
ID : 6
Format : UTF-8
Codec ID : S_TEXT/UTF8
Codec ID/Info : UTF-8 Plain Text
Duration : 1 h 34 min
Bit rate : 73 b/s
Count of elements : 1057
Stream size : 51.1 KiB (0%)
Language : Russian
Default : No
Forced : No

Text #3
ID : 7
Format : UTF-8
Codec ID : S_TEXT/UTF8
Codec ID/Info : UTF-8 Plain Text
Duration : 1 h 32 min
Bit rate : 49 b/s
Count of elements : 1072
Stream size : 33.8 KiB (0%)
Language : English
Default : No
Forced : No

Menu
00:00:00.000 : en:Chapter 1
00:02:32.152 : en:Chapter 2
00:11:46.873 : en:Chapter 3
00:20:31.856 : en:Chapter 4
00:26:28.504 : en:Chapter 5
00:35:54.152 : en:Chapter 6
00:44:01.806 : en:Chapter 7
00:52:45.204 : en:Chapter 8
01:01:59.507 : en:Chapter 9
01:08:23.266 : en:Chapter 10
01:17:46.996 : en:Chapter 11
01:27:06.054 : en:Chapter 12
01:37:54.368 : en:Chapter 13

pb.wtf



Скачать 451 градус по Фаренгейту через торрент http://d.radikal.ru/d22/1809/2c/3d2853fb8e31.png Скачать фильм 451 градус по Фаренгейту через торрент бесплантно в хорошем качестве Описание: В некоем тоталитарном обществе история переписывается, книги безжалостно сжигаются, а их чтение преследуется по закону. После ... 9.4 10 7
Info! Золотая раздача, скачанное не засчитывается.
Торрент: Зарегистрирован [2018-09-20 05:07] · скачан: 238 раз
Статус: √ проверено
Размер: 13.27 GB
Как cкачать? Как скачать 451 градус по Фаренгейту через торрент | qTorrent

% Раздел Тема Автор DL S | L
Фильмы 2018 [DVDrip, WEB-DLRip, HDrip] (DUB, MVO) [ 1.42 GB ] 451 градус по Фаренгейту / Fahrenheit 451 [2018 BDRip] MVO [Amedia] Twi7ter Скачать
3 | 0
Фильмы [HD 720p, 1080p] (Хороший звук DUB, MVO) [ 6.2 GB ] 451 градус по Фаренгейту / Fahrenheit 451 [2018 BDRip 720p] 2xMVO [Amedia NewStudio] bober100 Скачать
1 | 0
Фильмы 2018 [DVDrip, WEB-DLRip, HDrip] (DUB, MVO) [ 1.46 GB ] 451 градус по Фаренгейту / Fahrenheit 451 [2018 BDRip-AVC] MVO [Amedia] bober100 Скачать
3 | 0
Фильмы (Blu-ray, BD-Remux, HDDVD) [ 26.62 GB ] 451 градус по Фаренгейту / Fahrenheit 451 [2018 BD Remux 1080p] 3xMVO [Amedia HDrezka Studio NewStudio] bober100 Скачать
1 | 0
Фильмы 2018 [DVDrip, WEB-DLRip, HDrip] (DUB, MVO) [ 1.45 GB ] 451 градус по Фаренгейту / Fahrenheit 451 [2018 WEB-DLRip] MVO [Amedia] bober100 Скачать
1 | 0
Фильмы (WEB-DL 720p, 1080p) [ 2.92 GB ] 451 градус по Фаренгейту / Fahrenheit 451 [2018 WEB-DL 720p] 2xMVO [Amedia NewStudio] bober100 Скачать
2 | 0
R.G. Resident & PiratVoice - Фильмы, Видео [ 2.05 GB ] 451 градус по Фаренгейту / Fahrenheit 451 [2018 WEB-DLRip от R.G. Resident] MVO [Amedia] -Lexx- Скачать
1 | 0


Последний раз редактировалось: bober100 (2018-09-21 05:23), всего редактировалось 1 раз

28-11-2019 20:33  

Отключить всю рекламу на сайте

20-09-2018 05:35 451 градус по Фаренгейту Скачать торрент  

Опять негрила - герой.pb.wtf



20-09-2018 05:44 451 градус по Фаренгейту Скачать торрент  

ash87 писал(а):

Опять негрила - герой.

Сейчас по всему миру идёт планомерное опущение белой рассы, в угоду "загорелым"!pb.wtf



20-09-2018 07:56 451 градус по Фаренгейту Скачать торрент  

Drinkkid писал(а):

ash87 писал(а):

Опять негрила - герой.

Сейчас по всему миру идёт планомерное опущение белой рассы, в угоду "загорелым"!

чушьpb.wtf



20-09-2018 11:40 451 градус по Фаренгейту Скачать торрент  

Опять шимпанзе правит.
Мне кажется если бы не было белых на земле совсем.
Негры до сих пор жили бы в каменном веке.
Посмотрите историю где негры ??? выдающиеся деятели культуры,ученые,изобретатели,художники.pb.wtf



20-09-2018 13:14 451 градус по Фаренгейту Скачать торрент  

Цитата:

Сейчас по всему миру идёт планомерное опущение белой рассы, в угоду "загорелым"!

Согласен.В тот год когда писалась эта книга афроамереканец априори не мог быть главным героем...pb.wtf



20-09-2018 19:55 451 градус по Фаренгейту Скачать торрент  

очередной ремейк, фантазия вообще закончилась? или режиссеры отупели окончательно?pb.wtf



20-09-2018 20:47 451 градус по Фаренгейту Скачать торрент  

а как произведение стоит смотреть или нет?? а то про расизм только и балакаете((((pb.wtf



    Дорогой пользователь! Огромная просьба, поблагодарите релизера, оцените раздачу и оставьте свои комментарий, если Вы скачали 451 градус по Фаренгейту через торрент бесплатно! Внесите свою лепту в развитие PiratBit!
    Комментировать посты могут только пользователи прошедшие не сложную регистрацию
    Показать сообщения:    

    451 градус по Фаренгейту через торрент
    Скачать бесплатно 451 градус по Фаренгейту
    451 градус по Фаренгейту скачать торрент
    451 градус по Фаренгейту смотреть онлайн
    Cкачать фильм 451 градус по Фаренгейту бесплатно
    451 градус по Фаренгейту скачать торрент в хорошем качестве
    451 градус по Фаренгейту смотреть онлайн бесплатно в хорошем качестве


    Вы не можете начинать темы
    Вы не можете отвечать на сообщения
    Вы не можете редактировать свои сообщения
    Вы не можете удалять свои сообщения
    Вы не можете голосовать в опросах
    Вы не можете прикреплять файлы к сообщениям
    Вы можете скачивать файлы