Ссылка на приватное зеркало всего за 1$. Внимание количество ограничено!!!

OK

1+1

iTunes

мы

OK

1

WEB-DLRip

Джокер

Пифагор

Ведьмак / The Witcher сериал

iTunes

ПШазам

ОК

Оно 2

iTunes

30
pack

Вам бонус

ВАЖНО

!!Акция!!

Alien_RageХит недели

RePack

Resident Evil 21

ИГРА 18+

pack

RePack

jed

RePack

fifa19

RePack

Assassins Creed: Odyssey

RePack

NEED FOR SPEED™ PAYBACK

4 сезон

9 сезон

Бесстыжие 9 сезон

Все сериалы

все сериалы на PB.wtf

RePack

FAR CRY 5
  

Другая сторона свадьбы / Another Kind of Wedding (Пэт Кили) [2017, драма, комедия, WEB-DL 720p] MVO [Официальный звук] pb.wtf

Другая сторона свадьбы через торрент pb.wtf

Размер: 3.31 GB | Добавлен: 1 год 4 мес. назад | Торрент скачан:27 раз
Скачать  

20-09-2018 08:08 Другая сторона свадьбы Скачать торрент  

Другая сторона свадьбы / Another Kind of Wedding
Год выпуска: 2017
Страна: Канада
Жанр: драма, комедия
Продолжительность: 01:28:59
Перевод: Профессиональный (многоголосый) | Официальный звук
Субтитры: отсутствуют

Режиссер: Пэт Кили

rating

В ролях:

Джессика Паркер Кеннеди, Джессика Паре, Кэтлин Тёрнер, Уоллес Шоун, Кевин Зегерс, Фрэнсис Фишер, Люк Кирби, Кристина Розато, Джейкоб Тирни, Калинка Петри

Описание:

Мэтью и Луиза готовятся к свадьбе. Но не всем этот день принесёт радость. Не в восторге будет брат жениха, у которого была отбита невеста, а также родители, которые не хотят видеть друг друга. Но так или иначе, теперь им всем придётся собраться вместе и постараться забыть прошлые обиды.

Качество: WEB-DL 720p
Формат: MKV

Видео: h.264, 4 932 kb/s, 1280x720
Аудио#1: Русский, (AC3, 2 ch, 384 Кбит/с)
скриншот  скриншот  скриншот  

Общее
Уникальный идентификатор : 211160019957082613348466931754562138537 (0x9EDBF0C7D659250B8168079A3016B1A9)
Полное имя : D:\Another.Kind.of.Wedding.2O17.Pof.WEB_DL.72Op_KOSHARA.mkv
Формат : Matroska
Версия формата : Version 2
Размер файла : 3,31 Гбайт
Продолжительность : 1 ч. 28 м.
Режим общего битрейта : Переменный
Общий поток : 5318 Кбит/сек
Дата кодирования : UTC 2018-09-16 12:42:43
Программа кодирования : mkvmerge v8.3.0 ('Over the Horizon') 64bit
Библиотека кодирования : libebml v1.3.1 + libmatroska v1.4.2

Видео
Идентификатор : 1
Формат : AVC
Формат/Информация : Advanced Video Codec
Профиль формата : High@L4.1
Параметр CABAC формата : Да
Параметр RefFrames формата : 4 кадра
Идентификатор кодека : V_MPEG4/ISO/AVC
Продолжительность : 1 ч. 28 м.
Вид битрейта : Переменный
Битрейт : 4932 Кбит/сек
Максимальный битрейт : 5500 Кбит/сек
Ширина : 1280 пикселей
Высота : 720 пикселей
Соотношение сторон : 16:9
Режим частоты кадров : Постоянный
Частота кадров : 23,976 (24000/1001) кадра/сек
Стандарт вещания : Component
Цветовое пространство : YUV
Субдискретизация насыщенности : 4:2:0
Битовая глубина : 8 бит
Тип развёртки : Прогрессивная
Бит/(Пиксели*Кадры) : 0.218
Размер потока : 3,00 Гбайт (91%)
Default : Да
Forced : Нет
Цветовой диапазон : Limited
Основные цвета : BT.709
Характеристики трансфера : BT.709
Коэффициенты матрицы : BT.709

Аудио
Идентификатор : 2
Формат : AC-3
Формат/Информация : Audio Coding 3
Расширение режима : CM (complete main)
Параметр Endianness формата : Big
Идентификатор кодека : A_AC3
Продолжительность : 1 ч. 28 м.
Вид битрейта : Постоянный
Битрейт : 384 Кбит/сек
Каналы : 2 канала
Расположение каналов : Front: L R
Частота : 48,0 КГц
Частота кадров : 31,250 кадров/сек (1536 spf)
Метод сжатия : С потерями
Размер потока : 244 Мбайт (7%)
Default : Да
Forced : Нет

pb.wtf



Скачать Другая сторона свадьбы через торрент http://img11.lostpic.net/2018/09/20/630ba0a7d11edd96af69a3eaf2387cf5.jpg Скачать фильм Другая сторона свадьбы через торрент бесплантно в хорошем качестве Описание: Мэтью и Луиза готовятся к свадьбе. Но не всем этот день принесёт радость. Не в восторге будет брат жениха, у которого была отбита ... 7.8 10 4
Торрент: Зарегистрирован [2018-09-20 08:08] · скачан: 27 раз
Статус: T временная
Размер: 3.31 GB
Как cкачать? Как скачать Другая сторона свадьбы через торрент | qTorrent

% Раздел Тема Автор DL S | L
T Фильмы (мультфильмы) cо спонсором показа (Новинки AVI/MKV) [ 1.37 GB ] Другая сторона свадьбы / Another Kind of Wedding [2017 WEB-DLRip] MVO [Официальный звук] bober100 Скачать
1 | 0

28-11-2019 20:33  

Отключить всю рекламу на сайте

    Дорогой пользователь! Огромная просьба, поблагодарите релизера, оцените раздачу и оставьте свои комментарий, если Вы скачали Другая сторона свадьбы через торрент бесплатно! Внесите свою лепту в развитие PiratBit!
    Комментировать посты могут только пользователи прошедшие не сложную регистрацию
    Показать сообщения:    

    Другая сторона свадьбы через торрент
    Скачать бесплатно Другая сторона свадьбы
    Другая сторона свадьбы скачать торрент
    Другая сторона свадьбы смотреть онлайн
    Cкачать фильм Другая сторона свадьбы бесплатно
    Другая сторона свадьбы скачать торрент в хорошем качестве
    Другая сторона свадьбы смотреть онлайн бесплатно в хорошем качестве


    Вы не можете начинать темы
    Вы не можете отвечать на сообщения
    Вы не можете редактировать свои сообщения
    Вы не можете удалять свои сообщения
    Вы не можете голосовать в опросах
    Вы не можете прикреплять файлы к сообщениям
    Вы можете скачивать файлы