Ссылка на приватное зеркало всего за 1$. Внимание количество ограничено!!!

OK

1+1

iTunes

мы

OK

1

WEB-DLRip

Джокер

Пифагор

Ведьмак / The Witcher сериал

iTunes

ПШазам

ОК

Оно 2

iTunes

30
pack

Вам бонус

ВАЖНО

!!Акция!!

Alien_RageХит недели

RePack

Resident Evil 21

ИГРА 18+

pack

RePack

jed

RePack

fifa19

RePack

Assassins Creed: Odyssey

RePack

NEED FOR SPEED™ PAYBACK

4 сезон

9 сезон

Бесстыжие 9 сезон

Все сериалы

все сериалы на PB.wtf

RePack

FAR CRY 5
  

Самая убиваемая женщина в мире / La femme la plus assassinée du monde (Франк Рибьере) [2018 г., Детектив, триллер, биография, WEB-DLRip, Любительский (многоголосый)] [Синема УС] pb.wtf

Самая убиваемая женщина в мире через торрент pb.wtf

Размер: 1.36 GB | Добавлен: 1 год 4 мес. назад | Торрент скачан:23 раза
Скачать  

20-09-2018 15:38 Самая убиваемая женщина в мире Скачать торрент  

Самая убиваемая женщина в мире / La femme la plus assassinée du monde
Год выпуска: 2018
Страна: США, Бельгия, Великобритания
Жанр: Детектив, триллер, биография
Продолжительность: 01:45:10
Перевод: Любительский (многоголосый) | Синема УС
Субтитры: Отсутствуют

Режиссер: Франк Рибьере

rating

В ролях: Мишель Фо, Сисси Дюпарк, Рено Раттен, Андре Вильм, Эрик Годон, Нильс Шнайдер, Анна Муглалис, Жан-Мишель Бальтазар, Мишель Ферраччи, Констанс Долле

Описание: Паула Макс, знаменитая актриса Большого театра Гвиньола в Пигале начала 1930-х годов. Она умерла более 10000 раз на сцене. Паула - непроницаемая крепость, которая скрывает глубоко внутри себя отвратительную драму, произошедшую с ее младшей сестрой несколько лет назад. Теперь она сталкивается с таинственным сталкером и демонами своего прошлого.

Качество: WEB-DLRip
Формат: AVI
Видео кодек: XviD
Аудио кодек: AC3
Видео: XviD, 720x384 , 23.9fps, 1643 Kbps
Аудио#1: AC3 , 2 ch , 48 kHz , 192 kbps
скриншот   скриншот   скриншот   скриншот   скриншот   скриншот   скриншот  

Общее
Полное имя : D:The.Most.Assassinated.Woman.in.the.World.2018.P.WEB-DLRip.14OOMB_KOSHARA.avi
Формат : AVI
Формат/Информация : Audio Video Interleave
Размер файла : 1,36 Гбайт
Продолжительность : 1 ч. 45 м.
Общий поток : 1845 Кбит/сек
Программа кодирования : VirtualDubMod 1.5.10.2 (build 2540/release)
Библиотека кодирования : VirtualDubMod build 2540/release

Видео
Идентификатор : 0
Формат : MPEG-4 Visual
Профиль формата : Advanced Simple@L5
Параметр BVOP формата : 2
Параметр QPel формата : Нет
Параметр GMC формата : Без точки перехода
Параметр матрицы формата : Выборочная
Идентификатор кодека : XVID
Идентификатор кодека/Подсказка : XviD
Продолжительность : 1 ч. 45 м.
Битрейт : 1643 Кбит/сек
Ширина : 720 пикселей
Высота : 384 пикселя
Соотношение сторон : 1,85:1
Частота кадров : 23,976 кадра/сек
Цветовое пространство : YUV
Субдискретизация насыщенности : 4:2:0
Битовая глубина : 8 бит
Тип развёртки : Прогрессивная
Метод сжатия : С потерями
Бит/(Пиксели*Кадры) : 0.248
Размер потока : 1,21 Гбайт (89%)
Библиотека кодирования : XviD 1.2.1 (UTC 2008-12-04)

Аудио
Идентификатор : 1
Формат : AC-3
Формат/Информация : Audio Coding 3
Расширение режима : CM (complete main)
Параметр Endianness формата : Big
Идентификатор кодека : 2000
Продолжительность : 1 ч. 45 м.
Вид битрейта : Постоянный
Битрейт : 192 Кбит/сек
Каналы : 2 канала
Расположение каналов : Front: L R
Частота : 48,0 КГц
Битовая глубина : 16 бит
Метод сжатия : С потерями
Размер потока : 144 Мбайт (10%)
Выравнивание : Разделение по промежуткам
Продолжительность промежутка : 42 мс. (1,00 видеокадр)
Время предзагрузки промежутка : 500 мс.

pb.wtf



Скачать Самая убиваемая женщина в мире через торрент http://pic1.kartinco.top/images/11/wmbz4.jpg Скачать фильм Самая убиваемая женщина в мире через торрент бесплантно в хорошем качестве Описание: Паула Макс, знаменитая актриса Большого театра Гвиньола в Пигале начала 1930-х годов. Она умерла более 10000 раз на сцене. Паула ... 10 10 3
Торрент: Зарегистрирован [2018-09-20 15:38] · скачан: 23 раз
Статус: T временная
Размер: 1.36 GB
Как cкачать? Как скачать Самая убиваемая женщина в мире через торрент | qTorrent

28-11-2019 20:33  

Отключить всю рекламу на сайте

    Дорогой пользователь! Огромная просьба, поблагодарите релизера, оцените раздачу и оставьте свои комментарий, если Вы скачали Самая убиваемая женщина в мире через торрент бесплатно! Внесите свою лепту в развитие PiratBit!
    Комментировать посты могут только пользователи прошедшие не сложную регистрацию
    Показать сообщения:    

    Самая убиваемая женщина в мире через торрент
    Скачать бесплатно Самая убиваемая женщина в мире
    Самая убиваемая женщина в мире скачать торрент
    Самая убиваемая женщина в мире смотреть онлайн
    Cкачать фильм Самая убиваемая женщина в мире бесплатно
    Самая убиваемая женщина в мире скачать торрент в хорошем качестве
    Самая убиваемая женщина в мире смотреть онлайн бесплатно в хорошем качестве


    Вы не можете начинать темы
    Вы не можете отвечать на сообщения
    Вы не можете редактировать свои сообщения
    Вы не можете удалять свои сообщения
    Вы не можете голосовать в опросах
    Вы не можете прикреплять файлы к сообщениям
    Вы можете скачивать файлы