новый адрес
Ссылка на приватное зеркало всего за 1$. Внимание количество ограничено!!!

iTunes

1+1

iTunes

мы

iTunes

1

iTunes

Чернобыль

iTunes

Ральф против интернета

Лицензия

ПШазам

Лицензия

Оно 2

Лицензия

30
pack

Вам бонус

ВАЖНО

!!Акция!!

Alien_RageХит недели

RePack

Resident Evil 21

ИГРА 18+

pack

RePack

jed

!!Акция!!

Alien_Rage

RePack

fifa19

RePack

Assassins Creed: Odyssey

RePack

NEED FOR SPEED™ PAYBACK

3 сезон

9 сезон

Бесстыжие 9 сезон

Все сериалы

все сериалы на PB.wtf

RePack

FAR CRY 5
Ребята, катастрофически не хватает 1900р. для оплаты серверов за Октябрь (всвязи с блокировками трафик упал в 3 раза), 1-2р., выручайте.
  

451 градус по Фаренгейту / Fahrenheit 451 (Рамин Бахрани) [2018, Фантастика, драма, BDRip-AVC] MVO [Amedia] pb.wtf

451 градус по Фаренгейту через торрент pb.wtf

Раздают: 1 [ 0 KB/s ]
Размер: 1.46 GB | Добавлен: 1 год 2 мес. назад | Торрент скачан:706 раз
Скачать  

21-09-2018 05:25 451 градус по Фаренгейту Скачать торрент  

451 градус по Фаренгейту / Fahrenheit 451«Знание — опасная вещь»
Год выпуска: 2018
Страна: США
Жанр: Фантастика, драма
Продолжительность: 01:40:21
Перевод: Профессиональный (многоголосый, закадровый) | Amedia
Субтитры: Русские (форс., полные), Английские (полные)

Режиссер: Рамин Бахрани

rating

В ролях:

Майкл Б. Джордан, София Бутелла, Майкл Шеннон, Кир Дуллеа, Кэнди Александр, Мартин Донован, Лилли Сингх, Мэйко Нгуйен, Джо Пинг, Грэйс Линн Кунг

Описание:

В некоем тоталитарном обществе история переписывается, книги безжалостно сжигаются, а их чтение преследуется по закону. После встречи с юной Клариссой «пожарный» Гай Монтэг меняет свои убеждения и начинает противостоять суровому брандмейстеру Битти.

Качество: BDRip-AVC
Формат: MKV

Видео: 896x504 (16:9), 23,976 fps, x264 ~1 697 kbps avg, 0.157 bit/pixel
Аудио: 48 kHz, AC3 Dolby Digital, 3/2 (L,C,R,l,r) + LFE ch, ~384.00 kbps avg | RUS (Amedia)
скриншот  скриншот  скриншот  скриншот  

Общее
Уникальный идентификатор : 173330230869356097150423189988867571614 (0x8266302D3657AEDC53B540A7DA2BFF9E)
Полное имя : F:OlLanDGroupFahrenheit.451.2018.BDRip(AVC).OlLanDGroup.mkv
Формат : Matroska
Версия формата : Version 4 / Version 2
Размер файла : 1,46 Гбайт
Продолжительность : 1 ч. 40 м.
Общий поток : 2083 Кбит/сек
Название фильма : Fahrenheit.451 #TorpedoUK#
Дата кодирования : UTC 2018-09-21 03:29:57
Программа кодирования : mkvmerge v25.0.0 ('Prog Noir') 64-bit
Библиотека кодирования : libebml v1.3.6 + libmatroska v1.4.9

Видео
Идентификатор : 1
Формат : AVC
Формат/Информация : Advanced Video Codec
Профиль формата : High@L4.1
Параметр CABAC формата : Да
Параметр ReFrames формата : 10 кадров
Идентификатор кодека : V_MPEG4/ISO/AVC
Продолжительность : 1 ч. 40 м.
Битрейт : 1697 Кбит/сек
Ширина : 896 пикселей
Высота : 504 пикселя
Соотношение сторон : 16:9
Режим частоты кадров : Постоянный
Частота кадров : 23,976 (24000/1001) кадра/сек
Цветовое пространство : YUV
Субдискретизация насыщенности : 4:2:0
Битовая глубина : 8 бит
Тип развёртки : Прогрессивная
Бит/(Пиксели*Кадры) : 0.157
Размер потока : 1,19 Гбайт (81%)
Библиотека кодирования : x264 core 146 r2538 121396c
Настройки программы : cabac=1 / ref=10 / deblock=1:-3:-3 / analyse=0x3:0x113 / me=umh / subme=11 / psy=1 / psy_rd=1.00:0.03 / mixed_ref=1 / me_range=48 / chroma_me=1 / trellis=2 / 8x8dct=1 / cqm=0 / deadzone=21,11 / fast_pskip=1 / chroma_qp_offset=-3 / threads=6 / lookahead_threads=1 / sliced_threads=0 / nr=0 / decimate=1 / interlaced=0 / bluray_compat=0 / constrained_intra=0 / bframes=10 / b_pyramid=2 / b_adapt=2 / b_bias=0 / direct=3 / weightb=1 / open_gop=0 / weightp=2 / keyint=240 / keyint_min=23 / scenecut=40 / intra_refresh=0 / rc_lookahead=40 / rc=2pass / mbtree=0 / bitrate=1697 / ratetol=1.0 / qcomp=0.60 / qpmin=0 / qpmax=69 / qpstep=4 / cplxblur=20.0 / qblur=0.5 / vbv_maxrate=50000 / vbv_bufsize=62500 / nal_hrd=none / filler=0 / ip_ratio=1.40 / pb_ratio=1.30 / aq=1:1.00
Default : Да
Forced : Нет

Аудио
Идентификатор : 2
Формат : AC-3
Формат/Информация : Audio Coding 3
Расширение режима : CM (complete main)
Параметр Endianness формата : Big
Идентификатор кодека : A_AC3
Продолжительность : 1 ч. 40 м.
Вид битрейта : Постоянный
Битрейт : 384 Кбит/сек
Каналы : 6 каналов
Расположение каналов : Front: L C R, Side: L R, LFE
Частота : 48,0 КГц
Частота кадров : 31,250 кадров/сек (1536 spf)
Битовая глубина : 16 бит
Метод сжатия : С потерями
Размер потока : 276 Мбайт (18%)
Заголовок : MVO [Amedia]
Язык : Russian
Default : Да
Forced : Нет

Текст #1
Идентификатор : 3
Формат : UTF-8
Идентификатор кодека : S_TEXT/UTF8
Идентификатор кодека/Информация : UTF-8 Plain Text
Продолжительность : 1 ч. 39 м.
Битрейт : 4 бит/сек
Count of elements : 65
Размер потока : 3,14 Кбайт (0%)
Заголовок : Forced
Язык : Russian
Default : Да
Forced : Нет

Текст #2
Идентификатор : 4
Формат : UTF-8
Идентификатор кодека : S_TEXT/UTF8
Идентификатор кодека/Информация : UTF-8 Plain Text
Продолжительность : 1 ч. 34 м.
Битрейт : 73 бит/сек
Count of elements : 1057
Размер потока : 51,1 Кбайт (0%)
Заголовок : Full
Язык : Russian
Default : Нет
Forced : Нет

Текст #3
Идентификатор : 5
Формат : UTF-8
Идентификатор кодека : S_TEXT/UTF8
Идентификатор кодека/Информация : UTF-8 Plain Text
Продолжительность : 1 ч. 32 м.
Битрейт : 49 бит/сек
Count of elements : 1072
Размер потока : 33,9 Кбайт (0%)
Заголовок : Full
Язык : English
Default : Нет
Forced : Нет

Меню
00:00:00.000 : en:Chapter 1
00:02:32.152 : en:Chapter 2
00:11:46.873 : en:Chapter 3
00:20:31.856 : en:Chapter 4
00:26:28.504 : en:Chapter 5
00:35:54.152 : en:Chapter 6
00:44:01.806 : en:Chapter 7
00:52:45.204 : en:Chapter 8
01:01:59.507 : en:Chapter 9
01:08:23.266 : en:Chapter 10
01:17:46.996 : en:Chapter 11
01:27:06.054 : en:Chapter 12
01:37:54.368 : en:Chapter 13

pb.wtf



Скачать 451 градус по Фаренгейту через торрент http://i101.fastpic.ru/big/2018/0921/34/2fab01254fd189e4b826e7c88d0b3e34.jpg Скачать фильм 451 градус по Фаренгейту через торрент бесплантно в хорошем качестве Описание: В некоем тоталитарном обществе история переписывается, книги безжалостно сжигаются, а их чтение преследуется по закону. После ... 9.1 10 18
Info! Золотая раздача, скачанное не засчитывается.
Торрент: Зарегистрирован [2018-09-21 05:25] · скачан: 706 раз
Статус: √ проверено
Размер: 1.46 GB
Как cкачать? Как скачать 451 градус по Фаренгейту через торрент | qTorrent

% Раздел Тема Автор DL S | L
Фильмы 2018 [DVDrip, WEB-DLRip, HDrip] (DUB, MVO) [ 1.42 GB ] 451 градус по Фаренгейту / Fahrenheit 451 [2018 BDRip] MVO [Amedia] Twi7ter Скачать
1 | 0
Фильмы [HD 720p, 1080p] (Хороший звук DUB, MVO) [ 6.2 GB ] 451 градус по Фаренгейту / Fahrenheit 451 [2018 BDRip 720p] 2xMVO [Amedia NewStudio] bober100 Скачать
1 | 0
Фильмы [HD 720p, 1080p] (Хороший звук DUB, MVO) [ 13.27 GB ] 451 градус по Фаренгейту / Fahrenheit 451 [2018 BDRip 1080p] 2xMVO [Amedia NewStudio] bober100 Скачать
1 | 0
Фильмы (Blu-ray, BD-Remux, HDDVD) [ 26.62 GB ] 451 градус по Фаренгейту / Fahrenheit 451 [2018 BD Remux 1080p] 3xMVO [Amedia HDrezka Studio NewStudio] bober100 Скачать
1 | 0
Фильмы 2018 [DVDrip, WEB-DLRip, HDrip] (DUB, MVO) [ 1.45 GB ] 451 градус по Фаренгейту / Fahrenheit 451 [2018 WEB-DLRip] MVO [Amedia] bober100 Скачать
1 | 0
Фильмы (WEB-DL 720p, 1080p) [ 2.92 GB ] 451 градус по Фаренгейту / Fahrenheit 451 [2018 WEB-DL 720p] 2xMVO [Amedia NewStudio] bober100 Скачать
2 | 0
R.G. Resident & PiratVoice - Фильмы, Видео [ 2.05 GB ] 451 градус по Фаренгейту / Fahrenheit 451 [2018 WEB-DLRip от R.G. Resident] MVO [Amedia] -Lexx- Скачать
1 | 0
Отключить всю рекламу на сайте

21-09-2018 10:51 451 градус по Фаренгейту Скачать торрент  

Негр хороший,белый плохой!pb.wtf



21-09-2018 13:04 451 градус по Фаренгейту Скачать торрент  

Эквилибриум с оттенком?))pb.wtf



    Дорогой пользователь! Огромная просьба, поблагодарите релизера, оцените раздачу и оставьте свои комментарий, если Вы скачали 451 градус по Фаренгейту через торрент бесплатно! Внесите свою лепту в развитие PiratBit!
    Комментировать посты могут только пользователи прошедшие не сложную регистрацию
    Показать сообщения:    

    451 градус по Фаренгейту через торрент
    Скачать бесплатно 451 градус по Фаренгейту
    451 градус по Фаренгейту скачать торрент
    451 градус по Фаренгейту смотреть онлайн
    Cкачать фильм 451 градус по Фаренгейту бесплатно
    451 градус по Фаренгейту скачать торрент в хорошем качестве
    451 градус по Фаренгейту смотреть онлайн бесплатно в хорошем качестве


    Вы не можете начинать темы
    Вы не можете отвечать на сообщения
    Вы не можете редактировать свои сообщения
    Вы не можете удалять свои сообщения
    Вы не можете голосовать в опросах
    Вы не можете прикреплять файлы к сообщениям
    Вы можете скачивать файлы