новый адрес
Мега распродажа FORZA HORIZON 4 ULTIMATE+ВСЕ DLC+ОНЛАЙН всего за 499р. 349 руб. (супер цена). Внимание количество ограничено!!!

iTunes

1+1

iTunes

мы

iTunes

1

iTunes

Чернобыль

iTunes

Ральф против интернета

Лицензия

ПШазам

Лицензия

Игра престолов

Лицензия

30
pack

ВАЖНО

!!Акция!!

Alien_RageХит недели

RePack

Resident Evil 21

ИГРА 18+

pack

RePack

Metro:Exodus

!!Акция!!

Alien_Rage

RePack

fifa19

RePack

Assassins Creed: Odyssey

RePack

NEED FOR SPEED™ PAYBACK

3 сезон

9 сезон

Бесстыжие 9 сезон

Все сериалы

все сериалы на PB.wtf

RePack

FAR CRY 5
Ребята, катастрофически не хватает 1900р. для оплаты серверов за Октябрь (всвязи с блокировками трафик упал в 3 раза), 1-2р., выручайте.
  

Мишка, Серёга и я (Юрий Победоносцев) [1961, СССР, драма, SATRip от AVP Studio] pb.wtf

Мишка, Серёга и я через торрент pb.wtf

Размер: 1.09 GB | Добавлен: 1 год 1 мес. назад | Торрент скачан:13 раз
Скачать  

21-09-2018 08:11 Мишка, Серёга и я Скачать торрент  

Мишка, Серёга и я
Страна: СССР
Производство: К/ст им. М. Горького

Жанр: драма
Год выпуска: 1961
Продолжительность: 00:31:48

Перевод: Не требуется
Cубтитры: нет
Оригинальная аудиодорожка: русский

Режиссер: Юрий Победоносцев

В ролях:
Юрий Цветов, Виктор Семёнов, Валерий Рыжаков, Василий Шукшин, Владимир Гусев, Александр Лебедев, Алла Красовская, Леонид Смирнов, Валерий Пичугин, Лидия Драновская, Галина Васильева, Пётр Любешкин, Ян Янакиев, Юрий Чекулаев, Виктория Чаева, Борис Романов, Пётр Соболевский...
Об актёрах подробней

Описание:
По одноименной повести Н. Зелеранского и Б. Ларина.
В одной из московских школ учились три друга: трус и отличник Гарик, озорник Серега и правдолюбец Мишка. Восьмой "Г", где учились герои, учителя называли восьмым "О", что значит "орда". Но в класс пришел новый классный руководитель Геннадий Николаевич Козлов (Василий Шукшин) и ребятам жить стало интересней...

Источник: DVB
Качество видео: SATRip
Формат видео: AVI

Видео: 688х512 (4:3), 25 fps, XviD ~ 1498 kbps avg, 0.170 bit/pixel
Аудио: 48 kHz, Dolby Digital AC3 2.0, 192 kbps

Раздача от:
Общее
Полное имя : Mishka,Serega.i.ya.1961.SATRip_[New-team]_by_AVP_Studio.avi
Формат : AVI
Формат/Информация : Audio Video Interleave
Размер файла : 1,09 Гбайт
Продолжительность : 1 ч. 31 м.
Общий поток : 1699 Кбит/сек
Программа кодирования : VirtualDubMod 1.5.10.3 | www.virtualdub-fr.org || (build 2550/release)
Библиотека кодирования : VirtualDubMod build 2550/release

Видео
Идентификатор : 0
Формат : MPEG-4 Visual
Профиль формата : Advanced Simple@L5
Настройки формата : BVOP1 / Custom Matrix
Параметр BVOP формата : 1
Параметр QPel формата : Нет
Параметр GMC формата : Без точки перехода
Параметр матрицы формата : Выборочная
Идентификатор кодека : XVID
Идентификатор кодека/Подсказка : XviD
Продолжительность : 1 ч. 31 м.
Битрейт : 1498 Кбит/сек
Ширина : 688 пикселей
Высота : 512 пикселей
Соотношение сторон : 4:3
Частота кадров : 25,000 кадров/сек
Цветовое пространство : YUV
Субдискретизация насыщенности : 4:2:0
Битовая глубина : 8 бит
Тип развёртки : Прогрессивная
Метод сжатия : С потерями
Бит/(Пиксели*Кадры) : 0.170
Размер потока : 983 Мбайт (88%)
Библиотека кодирования : XviD 73

Аудио
Идентификатор : 1
Формат : AC-3
Формат/Информация : Audio Coding 3
Коммерческое название : Dolby Digital
Идентификатор кодека : 2000
Продолжительность : 1 ч. 31 м.
Вид битрейта : Постоянный
Битрейт : 192 Кбит/сек
Каналы : 2 канала
Channel layout : L R
Частота : 48,0 КГц
Частота кадров : 31,250 кадров/сек (1536 SPF)
Битовая глубина : 16 бит
Метод сжатия : С потерями
Размер потока : 126 Мбайт (11%)
Выравнивание : Разделение по промежуткам
Продолжительность промежутка : 40 мс. (1,00 видеокадр)
Время предзагрузки промежутка : 500 мс
pb.wtf



Скачать Мишка, Серёга и я через торрент http://picplus.ru/img/1809/21/bdbdeb10.png Скачать фильм Мишка, Серёга и я через торрент бесплантно в хорошем качестве Описание:По одноименной повести Н. Зелеранского и Б. Ларина.В одной из московских школ учились три друга: трус и отличник Гарик, озорник ... 5 10 1
Info! Золотая раздача, скачанное не засчитывается.
Торрент: Зарегистрирован [2018-09-21 08:11] · скачан: 13 раз
Статус: √ проверено
Размер: 1.09 GB
Как cкачать? Как скачать Мишка, Серёга и я через торрент | qTorrent

% Раздел Тема Автор DL S | L
Кино СССР [ 1.09 GB ] Мишка Серёга и я [1961 СССР SATRip-AVC от AVP Studio] AVP Studio Скачать
1 | 0


>> Регистрируемся здесь <<






Отзывы и комментарии о схеме читаем и пишем здесь: ---> Отзывы и комментарии о схеме

Новые благодарочки в телеграм довольных пользователей:
скриншот   скриншот   скриншот   скриншот   скриншот
    Дорогой пользователь! Огромная просьба, поблагодарите релизера, оцените раздачу и оставьте свои комментарий, если Вы скачали Мишка, Серёга и я через торрент бесплатно! Внесите свою лепту в развитие PiratBit!
    Комментировать посты могут только пользователи прошедшие не сложную регистрацию
    Показать сообщения:    

    Мишка, Серёга и я через торрент
    Скачать бесплатно Мишка, Серёга и я
    Мишка, Серёга и я скачать торрент
    Мишка, Серёга и я смотреть онлайн
    Cкачать фильм Мишка, Серёга и я бесплатно
    Мишка, Серёга и я скачать торрент в хорошем качестве
    Мишка, Серёга и я смотреть онлайн бесплатно в хорошем качестве


    Вы не можете начинать темы
    Вы не можете отвечать на сообщения
    Вы не можете редактировать свои сообщения
    Вы не можете удалять свои сообщения
    Вы не можете голосовать в опросах
    Вы не можете прикреплять файлы к сообщениям
    Вы можете скачивать файлы