Ссылка на приватное зеркало всего за 1$. Внимание количество ограничено!!!

OK

1+1

iTunes

мы

OK

1

WEB-DLRip

Джокер

Пифагор

Ведьмак / The Witcher сериал

iTunes

ПШазам

ОК

Оно 2

iTunes

30
pack

Вам бонус

ВАЖНО

!!Акция!!

Alien_RageХит недели

RePack

Resident Evil 21

ИГРА 18+

pack

RePack

jed

RePack

fifa19

RePack

Assassins Creed: Odyssey

RePack

NEED FOR SPEED™ PAYBACK

4 сезон

9 сезон

Бесстыжие 9 сезон

Все сериалы

все сериалы на PB.wtf

RePack

FAR CRY 5
  

Хан Соло: Звёздные войны. Истории в 3Д / Solo: A Star Wars Story 3D (Рон Ховард / Ron Howard) [2018, фантастика, фэнтези, боевик, приключения, BDRip, 1080p] OverUnder / Вертикальная стереопара pb.wtf

Хан Соло: Звёздные войны. Истории в 3Д через торрент pb.wtf

Размер: 14.57 GB | Добавлен: 1 год 4 мес. назад | Торрент скачан:242 раза
Скачать  

21-09-2018 12:06 Хан Соло: Звёздные войны. Истории в 3Д Скачать торрент  

Хан Соло: Звёздные войны. Истории / Solo: A Star Wars Story

Год выпуска: 2018
Страна: США (Lucasfilm Ltd., Walt Disney Pictures)
Жанр: фантастика, фэнтези, боевик, приключения
Продолжительность: 02:14:59

Перевод: Профессиональный дублированный(лицензия)
Русские субтитры: нет
Режиссер: Рон Ховард / Ron Howard

В ролях: Олден Эренрайк, Йонас Суотамо, Вуди Харрельсон, Эмилия Кларк, Дональд Гловер, Тэнди Ньютон, Фиби Уоллер-Бридж, Пол Беттани, Джон Фавро, Эрин Келлиман

Описание: Фильм расскажет о похождениях юного космического сорвиголовы Хана Соло и его верного напарника Чубакки и о том, как они стали самыми быстрыми пилотами и самыми хитрыми контрабандистами далёкой Галактики.

Сэмпл: http://sendfile.su/1443323

Качество: BDrip, 1080p
Контейнер: MKV
Формат 3D: OverUnder / Вертикальная стереопара
Порядок ракурсов: левый ракурс первый
Видео кодек: x264
Аудио кодек: AC3
Видео: AVC / High@L5.0 / 23,976 fps / 1920х2160 / 13,7 Мбит/сек
Аудио: Русский / AC3 / 48 KHz / 5.1 ch / 640 Кбит/сек(лицензия)
Аудио 2: Английский / AC3 / 48 KHz / 5.1 ch / 640 Кбит/сек

ВНИМАНИЕ ! На встроенных ТВ-плеерах работать не будет!!!

ТВ Samsung в названии которого есть надпись Ultra HD , и LG Ultra HD 800 серии, LG C6P, Xiaomi Mi TV 2 воспроизводят полные стереопары встроенными плеерами
Железные плееры на которых воспроизводятся полные стереопары:Popcorn C-200 , Dune HD Smart D1 , Dune HD DUO , Dune HD Smart H1 , Dune HD Smart B1 , Dune HD Max , Dune HD TV-303D, Dune HD TV-102, Dune HD Base 3D, Philips HMP7001, Aura HD, MECOOL BB2
Чтобы изображение было на весь экран в плеере выставляем, если рип 1920х1600 - то выставляем 2.35:1 , если 1920х2160 - то выставляем 16:9
Общее
Уникальный идентификатор : 206656281851049806917405963688059320137 (0x9B788D59214A83E2B5E5C6E7986FB749)
Полное имя : G:\видео\Solo A Star Wars Story.Rip by SeRoGa00.mkv
Формат : Matroska
Версия формата : Version 2
Размер файла : 14,6 Гбайт
Продолжительность : 2 ч. 16 м.
Общий поток : 15,3 Мбит/сек
Дата кодирования : UTC 2018-09-21 04:41:17
Программа кодирования : mkvmerge v3.4.0 ('Rapunzel') сборка от May 15 2010 09:38:20
Библиотека кодирования : libebml v0.8.0 + libmatroska v0.9.0

Видео
Идентификатор : 1
Формат : AVC
Формат/Информация : Advanced Video Codec
Профиль формата : High@L5.0
Параметр CABAC формата : Да
Параметр ReFrames формата : 4 кадра
Идентификатор кодека : V_MPEG4/ISO/AVC
Продолжительность : 2 ч. 16 м.
Битрейт : 13,7 Мбит/сек
Ширина : 1920 пикселей
Высота : 2160 пикселей
Соотношение сторон : 0,889
Частота кадров : 23,976 кадра/сек
Цветовое пространство : YUV
Субдискретизация насыщенности : 4:2:0
Битовая глубина : 8 бит
Тип развёртки : Прогрессивная
Бит/(Пиксели*Кадры) : 0.138
Размер потока : 13,1 Гбайт (90%)
Заголовок : Rip by SeRoGa00
Библиотека кодирования : x264 core 155 r2901 7d0ff22
Настройки программы : cabac=1 / ref=4 / deblock=1:-3:-3 / analyse=0x3:0x113 / me=umh / subme=10 / psy=1 / psy_rd=1.00:0.15 / mixed_ref=1 / me_range=24 / chroma_me=1 / trellis=2 / 8x8dct=1 / cqm=0 / deadzone=21,11 / fast_pskip=1 / chroma_qp_offset=-3 / threads=18 / lookahead_threads=6 / sliced_threads=0 / nr=0 / decimate=0 / interlaced=0 / bluray_compat=0 / constrained_intra=0 / bframes=10 / b_pyramid=2 / b_adapt=2 / b_bias=0 / direct=3 / weightb=1 / open_gop=0 / weightp=2 / keyint=250 / keyint_min=23 / scenecut=40 / intra_refresh=0 / rc_lookahead=60 / rc=crf / mbtree=1 / crf=16.5 / qcomp=0.60 / qpmin=10 / qpmax=69 / qpstep=4 / vbv_maxrate=40000 / vbv_bufsize=40000 / crf_max=0.0 / nal_hrd=none / filler=0 / ip_ratio=1.40 / aq=1:1.00
Язык : English
Default : Нет
Forced : Нет

Аудио #1
Идентификатор : 2
Формат : AC-3
Формат/Информация : Audio Coding 3
Расширение режима : CM (complete main)
Параметр Endianness формата : Big
Идентификатор кодека : A_AC3
Продолжительность : 2 ч. 16 м.
Вид битрейта : Постоянный
Битрейт : 640 Кбит/сек
Каналы : 6 каналов
Расположение каналов : Front: L C R, Side: L R, LFE
Частота : 48,0 КГц
Битовая глубина : 16 бит
Метод сжатия : С потерями
Размер потока : 624 Мбайт (4%)
Язык : Russian
Default : Да
Forced : Нет

Аудио #2
Идентификатор : 3
Формат : AC-3
Формат/Информация : Audio Coding 3
Расширение режима : CM (complete main)
Параметр Endianness формата : Big
Идентификатор кодека : A_AC3
Продолжительность : 2 ч. 16 м.
Вид битрейта : Постоянный
Битрейт : 640 Кбит/сек
Каналы : 6 каналов
Расположение каналов : Front: L C R, Side: L R, LFE
Частота : 48,0 КГц
Битовая глубина : 16 бит
Метод сжатия : С потерями
Размер потока : 624 Мбайт (4%)
Язык : English
Default : Нет
Forced : Нет

Меню
00:00:00.000 : en:00:00:00.000
00:00:53.844 : en:00:00:53.844
00:02:10.212 : en:00:02:10.212
00:03:53.149 : en:00:03:53.149
00:06:00.485 : en:00:06:00.485
00:09:27.566 : en:00:09:27.566
00:13:16.044 : en:00:13:16.044
00:14:14.019 : en:00:14:14.019
00:16:12.261 : en:00:16:12.261
00:19:45.099 : en:00:19:45.099
00:22:43.819 : en:00:22:43.819
00:24:37.267 : en:00:24:37.267
00:27:00.035 : en:00:27:00.035
00:30:02.925 : en:00:30:02.925
00:32:54.681 : en:00:32:54.681
00:39:09.764 : en:00:39:09.764
00:41:59.224 : en:00:41:59.224
00:43:20.179 : en:00:43:20.179
00:44:32.126 : en:00:44:32.126
00:48:03.755 : en:00:48:03.755
00:51:58.322 : en:00:51:58.322
00:53:17.527 : en:00:53:17.527
00:57:23.523 : en:00:57:23.523
01:00:16.778 : en:01:00:16.778
01:02:40.882 : en:01:02:40.882
01:04:51.262 : en:01:04:51.262
01:05:29.507 : en:01:05:29.507
01:07:12.027 : en:01:07:12.027
01:08:05.914 : en:01:08:05.914
01:10:00.112 : en:01:10:00.112
01:12:44.193 : en:01:12:44.193
01:14:40.850 : en:01:14:40.850
01:18:30.872 : en:01:18:30.872
01:23:15.739 : en:01:23:15.739
01:26:32.645 : en:01:26:32.645
01:30:33.136 : en:01:30:33.136
01:35:19.671 : en:01:35:19.671
01:37:04.859 : en:01:37:04.859
01:38:52.801 : en:01:38:52.801
01:41:18.529 : en:01:41:18.529
01:43:02.676 : en:01:43:02.676
01:45:27.820 : en:01:45:27.820
01:46:32.176 : en:01:46:32.176
01:49:45.996 : en:01:49:45.996
01:53:33.890 : en:01:53:33.890
01:57:13.900 : en:01:57:13.900
01:58:55.127 : en:01:58:55.127
02:01:34.828 : en:02:01:34.828
02:03:20.893 : en:02:03:20.893
02:06:09.353 : en:02:06:09.353
скриншот  

скриншот  

скриншот  

скриншот  

скриншот  

скриншот  
pb.wtf



Скачать Хан Соло: Звёздные войны. Истории в 3Д через торрент https://a.radikal.ru/a36/1809/6f/358697b349e5.png Скачать фильм Хан Соло: Звёздные войны. Истории в 3Д через торрент бесплантно в хорошем качестве Описание: Фильм расскажет о похождениях юного космического сорвиголовы Хана Соло и его верного напарника Чубакки и о том, как они стали ... 10 10 5
Info! Золотая раздача, скачанное не засчитывается.
Торрент: Зарегистрирован [2018-09-21 12:06] · скачан: 242 раз
Статус: √ проверено
Размер: 14.57 GB
Как cкачать? Как скачать Хан Соло: Звёздные войны. Истории в 3Д через торрент | qTorrent

28-11-2019 20:33  

Отключить всю рекламу на сайте

    Дорогой пользователь! Огромная просьба, поблагодарите релизера, оцените раздачу и оставьте свои комментарий, если Вы скачали Хан Соло: Звёздные войны. Истории в 3Д через торрент бесплатно! Внесите свою лепту в развитие PiratBit!
    Комментировать посты могут только пользователи прошедшие не сложную регистрацию
    Показать сообщения:    

    Хан Соло: Звёздные войны. Истории в 3Д через торрент
    Скачать бесплатно Хан Соло: Звёздные войны. Истории в 3Д
    Хан Соло: Звёздные войны. Истории в 3Д скачать торрент
    Хан Соло: Звёздные войны. Истории в 3Д смотреть онлайн
    Cкачать фильм Хан Соло: Звёздные войны. Истории в 3Д бесплатно
    Хан Соло: Звёздные войны. Истории в 3Д скачать торрент в хорошем качестве
    Хан Соло: Звёздные войны. Истории в 3Д смотреть онлайн бесплатно в хорошем качестве


    Вы не можете начинать темы
    Вы не можете отвечать на сообщения
    Вы не можете редактировать свои сообщения
    Вы не можете удалять свои сообщения
    Вы не можете голосовать в опросах
    Вы не можете прикреплять файлы к сообщениям
    Вы можете скачивать файлы