Ссылка на приватное зеркало нашего сайта всего за 1$. Внимание количество ограничено!!!

2 сезон

iTunes

1 сезон

1

2 сезон

2 сезон

iTunes

1 сезон

RePack

30

Ultimate

ВАЖНО

ИГРА 18+

pack

RePack

MK11
pack

Забери бонус

RePack

jed

!!Акция!!

Alien_Rage

RePack

fifa19

RePack

Assassins Creed: Odyssey

RePack

NEED FOR SPEED™ PAYBACK

4 сезон

9 сезон

Бесстыжие 9 сезон

Все сериалы

все сериалы на PB.wtf

RePack

FAR CRY 5
  

Большой куш / Snatch / Сезон: 2 / Серии: 1-10 из 10 (Лоуренс Гоф, Николас Рентон, Том Дей) [2018, комедия, криминал, WEB-DL 1080p] [MVO] (LostFilm) pb.wtf

Большой куш через торрент pb.wtf

Размер: 22.29 GB | Добавлен: 2 года 1 мес. назад | Торрент скачан:5 раз
Скачать  

21-09-2018 14:05 Большой куш Скачать торрент  

Большой кушSnatch

Год выпуска: 2018
Страна: США, Великобритания
Жанр: Комедия, криминал
Продолжительность: 1x ~00:45:00
Перевод: Профессиональный (многоголосый закадровый) LostFilm

Режиссёр: Лоуренс Гоф, Николас Рентон, Джеффри Сакс

В ролях: Руперт Гринт, Люсьен Лависконт, Люк Паскуалино, Дугрей Скотт, Эд Вествик, Расс Бэйн, Клер Купер, Фиби Дайневор, Джо Херст и др.

Описание: Сюжет сосредоточится на группе молодых предприимчивых жуликов, наткнувшихся на грузовик, полный награбленного золота. Так герои оказываются втянутыми в мир элиты организованной преступности, где им придется на ходу учиться выживать, сталкиваясь с гангстерами, коррумпированными копами и боксерами-цыганами.



Качество: WEB-DL 1080p
Формат: MKV
Видео: AVC, 1920x1080, 6800, Кбит/сек, 23,976 fps
Аудио: Rus: AC3, 48 kHz, 2ch, 384 Кбит/сек kbps | LostFilm
Аудио: Eng: AC3, 48 kHz, 2ch, 384 Кбит/сек |Original|
Общее
Уникальный идентификатор : 183234824721999043003463988622395989691 (0x89D9BE5B2BDDD3CBAB5753F3A3C85EBB)
Полное имя : B:\Мой докуметы\видио\Snatch.S02E01.1080p.rus.LostFilm.mkv
Формат : Matroska
Версия формата : Version 4 / Version 2
Размер файла : 2,30 Гбайт
Продолжительность : 43 м.
Общий поток : 7563 Кбит/сек
Дата кодирования : UTC 2018-09-16 20:21:09
Программа кодирования : mkvmerge v9.5.0 ('Quiet Fire') 64bit
Библиотека кодирования : libebml v1.3.4 + libmatroska v1.4.5

Видео
Идентификатор : 1
Формат : AVC
Формат/Информация : Advanced Video Codec
Профиль формата : High@L4.1
Параметр CABAC формата : Да
Параметр ReFrames формата : 4 кадра
Идентификатор кодека : V_MPEG4/ISO/AVC
Продолжительность : 43 м.
Битрейт : 6800 Кбит/сек
Ширина : 1920 пикселей
Высота : 1080 пикселей
Соотношение сторон : 16:9
Режим частоты кадров : Постоянный
Частота кадров : 23,976 (24000/1001) кадра/сек
Частота кадров в оригинале : 23,976 (23976/1000) кадра/сек
Цветовое пространство : YUV
Субдискретизация насыщенности : 4:2:0
Битовая глубина : 8 бит
Тип развёртки : Прогрессивная
Бит/(Пиксели*Кадры) : 0.137
Размер потока : 2,07 Гбайт (90%)
Библиотека кодирования : x264 core 112 r1834 a51816a
Настройки программы : cabac=1 / ref=4 / deblock=1:-3:-2 / analyse=0x3:0x113 / me=hex / subme=7 / psy=1 / psy_rd=1.00:0.00 / mixed_ref=1 / me_range=16 / chroma_me=1 / trellis=1 / 8x8dct=1 / cqm=0 / deadzone=21,11 / fast_pskip=1 / chroma_qp_offset=-2 / threads=12 / sliced_threads=0 / nr=0 / decimate=1 / interlaced=0 / constrained_intra=0 / bframes=5 / b_pyramid=2 / b_adapt=1 / b_bias=0 / direct=1 / weightb=1 / open_gop=0 / weightp=2 / keyint=250 / keyint_min=25 / scenecut=40 / intra_refresh=0 / rc_lookahead=40 / rc=2pass / mbtree=1 / bitrate=6800 / ratetol=1.0 / qcomp=0.60 / qpmin=0 / qpmax=51 / qpstep=4 / cplxblur=20.0 / qblur=0.5 / vbv_maxrate=10000 / vbv_bufsize=256000 / ip_ratio=1.40 / aq=1:1.00 / nal_hrd=none
Default : Да
Forced : Нет

Аудио #1
Идентификатор : 2
Формат : AC-3
Формат/Информация : Audio Coding 3
Расширение режима : CM (complete main)
Параметр Endianness формата : Big
Идентификатор кодека : A_AC3
Продолжительность : 43 м.
Вид битрейта : Постоянный
Битрейт : 384 Кбит/сек
Каналы : 2 канала
Расположение каналов : Front: L R
Частота : 48,0 КГц
Частота кадров : 31,250 кадров/сек (1536 spf)
Метод сжатия : С потерями
Размер потока : 120 Мбайт (5%)
Default : Да
Forced : Нет

Аудио #2
Идентификатор : 3
Формат : AC-3
Формат/Информация : Audio Coding 3
Расширение режима : CM (complete main)
Параметр Endianness формата : Big
Идентификатор кодека : A_AC3
Продолжительность : 43 м.
Вид битрейта : Постоянный
Битрейт : 384 Кбит/сек
Каналы : 2 канала
Расположение каналов : Front: L R
Частота : 48,0 КГц
Частота кадров : 31,250 кадров/сек (1536 spf)
Метод сжатия : С потерями
Размер потока : 120 Мбайт (5%)
Default : Нет
Forced : Нет
скриншот  скриншот  скриншот  
Внимание! Раздача ведётся путём добавления новых серий; при каждом добавлении создаётся новый торрент. Чтобы начать докачку новой серии, пользователям необходимо сделать следующее:

Остановить скачивание.

Удалить старый торрент у себя из клиента (старые серии удалять не надо).

Скачать новый торрент и запустить его у себя в клиенте вместо старого, при этом указать клиенту путь в старую папку куда и должно происходить скачивание новых серий.

Ваш клиент при этом должен произвести хеширование (проверку) старой папки (если не производит сам - помогите ему сделать это), и будет докачивать только те серии которых у вас ещё нет. Старые серии при этом не удаляются, а продолжают раздаваться!

Eсли вы уже удалили старые серии, то предотвратить повторную закачку старых серий можно, отжав галочку в соответсвующих местах при запуске нового торрента. По возможности, желательно не удалять старые серии как можно дольше чтобы релизёр не столько продолжал раздавать старые серии, а смог сконцентрироваться на новых.
pb.wtf



Скачать Большой куш через торрент http://i104.fastpic.ru/big/2018/0725/c3/26ed901525e8a2ad63de8e14a988f2c3.jpg Скачать фильм Большой куш через торрент бесплантно в хорошем качестве Описание: Сюжет сосредоточится на группе молодых предприимчивых жуликов, наткнувшихся на грузовик, полный награбленного золота. Так герои ... 7 10 3
Info! Золотая раздача, скачанное не засчитывается.
Торрент: Зарегистрирован [2018-10-25 16:03] · скачан: 5 раз
Статус: √ проверено
Размер: 22.29 GB
Как cкачать? Как скачать Большой куш через торрент | qTorrent

% Раздел Тема Автор DL S | L
Зарубежные сериалы [ 550 MB ] Большой куш / Snatch / Сезон: 2 / Серии: 1 из 10 [2018 WEBRip] [MVO] killermax2013 Скачать
1 | 0
Зарубежные сериалы [ 7.52 GB ] Большой куш / Snatch / Сезон: 2 / Серии: 1-10 из 10 [2018 WEBRip 720p] MVO [Jaskier] bober100 Скачать
1 | 0
Зарубежные сериалы [ 4.89 GB ] Большой куш / Snatch / Сезон: 2 / Серии: 1-10 из 10 [2018 WEBRip] MVO [Jaskier] bober100 Скачать
1 | 0
Зарубежные сериалы [ 12.43 GB ] Большой куш / Snatch / Сезон: 2 / Серии: 1-10 из 10 [2018 WEBRip 1080p] MVO [Jaskier] bober100 Скачать
1 | 0
Зарубежные сериалы [ 3.91 GB ] Большой куш / Snatch / Сезон: 2 / Серии: 1-10 из 10 [2018 WEBRip] [DVO] killermax2013 Скачать
1 | 0
Зарубежные сериалы [ 5.88 GB ] Большой куш / Snatch / Сезон: 2 / Серии: 1-10 из 10 [2018 WEBRip] MVO [LostFilm] bober100 Скачать
1 | 0
Зарубежные сериалы [ 11.19 GB ] Большой куш / Snatch / Сезон: 2 / Серии: 1-10 из 10 [2018 WEBRip 720p] MVO [ColdFilm] bober100 Скачать
1 | 0

28-11-2019 20:33  

Отключить всю рекламу на сайте

    Дорогой пользователь! Огромная просьба, поблагодарите релизера, оцените раздачу и оставьте свои комментарий, если Вы скачали Большой куш через торрент бесплатно! Внесите свою лепту в развитие PiratBit!
    Комментировать посты могут только пользователи прошедшие не сложную регистрацию
    Показать сообщения:    

    Большой куш через торрент
    Скачать бесплатно Большой куш
    Большой куш скачать торрент
    Большой куш смотреть онлайн
    Cкачать фильм Большой куш бесплатно
    Большой куш скачать торрент в хорошем качестве
    Большой куш смотреть онлайн бесплатно в хорошем качестве


    Вы не можете начинать темы
    Вы не можете отвечать на сообщения
    Вы не можете редактировать свои сообщения
    Вы не можете удалять свои сообщения
    Вы не можете голосовать в опросах
    Вы не можете прикреплять файлы к сообщениям
    Вы можете скачивать файлы