Ссылка на приватное зеркало всего за 1$. Внимание количество ограничено!!!

OK

1+1

iTunes

мы

OK

1

WEB-DLRip

Джокер

Пифагор

Ведьмак / The Witcher сериал

Лицензия

ПШазам

ОК

Оно 2

iTunes

30
pack

Вам бонус

ВАЖНО

!!Акция!!

Alien_RageХит недели

RePack

Resident Evil 21

ИГРА 18+

pack

RePack

jed

!!Акция!!

Alien_Rage

RePack

fifa19

RePack

Assassins Creed: Odyssey

RePack

NEED FOR SPEED™ PAYBACK

4 сезон

9 сезон

Бесстыжие 9 сезон

Все сериалы

все сериалы на PB.wtf

RePack

FAR CRY 5
  

Тёмное пробуждение / Black Wake (Джереми Кипп) [2018, Ужасы, фантастика, триллер, WEB-DL 720p] MVO ["Синема УС"] pb.wtf

Тёмное пробуждение через торрент pb.wtf

Размер: 3.02 GB | Добавлен: 1 год 3 мес. назад | Торрент скачан:160 раз
Скачать  

21-09-2018 15:59 Тёмное пробуждение Скачать торрент  

Тёмное пробуждение / Black WakeГод выпуска: 2018
Страна: США
Жанр: Ужасы, фантастика, триллер
Продолжительность: 01:33:58
Перевод: Любительский (многоголосый) | "Синема УС"

Режиссер: Джереми Кипп

rating

В ролях:

Нана Гувеа, Том Сайзмор, Эрик Робертс, Джонни Бошан, Винсент Пасторе, Чак Цито, Дж. В. Кортес, Бретт Азар, Рич Графф, Дэвид Гир

Описание:

Группа учёных собирается в сверхсекретном исследовательском институте для того, чтобы расследовать и установить причину смерти людей, тела которых стали регулярно находить на побережье Атлантического океана. В то время, как полицейские считают, что убийства - дело рук серийного маньяка, главная героиня ленты, доктор Луиза Морейра, в процессе изучения вещественных доказательств с мест преступления, понимает, на самом деле человечеству угрожает могущественное и древнее зло.

Качество: WEB-DL 720p
Формат: MKV

Видео: h.264, 4 214 kb/s, 1280x720
Аудио#1: Русский, (AC3, 2 ch, 384 Кбит/с)
скриншот  скриншот  скриншот  

Общее
Уникальный идентификатор : 249975058556110420659309899058709547372 (0xBC0F71EF9A9E61278BCC4FC20188496C)
Полное имя : D:\Black.Wake.2018.P.WEB-DL.72Op_KOSHARA.mkv
Формат : Matroska
Версия формата : Version 2
Размер файла : 3,02 Гбайт
Продолжительность : 1 ч. 33 м.
Режим общего битрейта : Переменный
Общий поток : 4600 Кбит/сек
Дата кодирования : UTC 2018-09-15 14:43:12
Программа кодирования : mkvmerge v8.3.0 ('Over the Horizon') 64bit
Библиотека кодирования : libebml v1.3.1 + libmatroska v1.4.2

Видео
Идентификатор : 1
Формат : AVC
Формат/Информация : Advanced Video Codec
Профиль формата : High@L4.1
Параметр CABAC формата : Да
Параметр RefFrames формата : 4 кадра
Идентификатор кодека : V_MPEG4/ISO/AVC
Продолжительность : 1 ч. 33 м.
Вид битрейта : Переменный
Битрейт : 4214 Кбит/сек
Максимальный битрейт : 5000 Кбит/сек
Ширина : 1280 пикселей
Высота : 720 пикселей
Соотношение сторон : 16:9
Режим частоты кадров : Постоянный
Частота кадров : 23,976 (24000/1001) кадра/сек
Стандарт вещания : Component
Цветовое пространство : YUV
Субдискретизация насыщенности : 4:2:0
Битовая глубина : 8 бит
Тип развёртки : Прогрессивная
Бит/(Пиксели*Кадры) : 0.187
Размер потока : 2,71 Гбайт (90%)
Default : Да
Forced : Нет
Цветовой диапазон : Limited
Основные цвета : BT.709
Характеристики трансфера : BT.709
Коэффициенты матрицы : BT.709

Аудио
Идентификатор : 2
Формат : AC-3
Формат/Информация : Audio Coding 3
Расширение режима : CM (complete main)
Параметр Endianness формата : Big
Идентификатор кодека : A_AC3
Продолжительность : 1 ч. 33 м.
Вид битрейта : Постоянный
Битрейт : 384 Кбит/сек
Каналы : 2 канала
Расположение каналов : Front: L R
Частота : 48,0 КГц
Частота кадров : 31,250 кадров/сек (1536 spf)
Метод сжатия : С потерями
Размер потока : 258 Мбайт (8%)
Default : Да
Forced : Нет

pb.wtf



Скачать Тёмное пробуждение через торрент http://pic1.kartinco.top/images/11/rep3v.jpg Скачать фильм Тёмное пробуждение через торрент бесплантно в хорошем качестве Описание: Группа учёных собирается в сверхсекретном исследовательском институте для того, чтобы расследовать и установить причину смерти ... 9.3 10 8
Торрент: Зарегистрирован [2018-09-21 15:59] · скачан: 160 раз
Статус: T временная
Размер: 3.02 GB
Как cкачать? Как скачать Тёмное пробуждение через торрент | qTorrent

% Раздел Тема Автор DL S | L
T Фильмы (мультфильмы) cо спонсором показа (Новинки AVI/MKV) [ 1.33 GB ] Тёмное пробуждение / Black Wake [2018 WEB-DLRip Любительский ] oleg8 Скачать
1 | 0

28-11-2019 20:33  

Отключить всю рекламу на сайте

22-09-2018 10:22 Тёмное пробуждение Скачать торрент  

И как фильм?pb.wtf



22-09-2018 10:39 Тёмное пробуждение Скачать торрент  

тема сисег раскрыта))))pb.wtf



26-09-2018 21:29 Тёмное пробуждение Скачать торрент  

ктулхуpb.wtf



30-09-2018 14:22 Тёмное пробуждение Скачать торрент  

третий скрин не дает покоя )))pb.wtf



    Дорогой пользователь! Огромная просьба, поблагодарите релизера, оцените раздачу и оставьте свои комментарий, если Вы скачали Тёмное пробуждение через торрент бесплатно! Внесите свою лепту в развитие PiratBit!
    Комментировать посты могут только пользователи прошедшие не сложную регистрацию
    Показать сообщения:    

    Тёмное пробуждение через торрент
    Скачать бесплатно Тёмное пробуждение
    Тёмное пробуждение скачать торрент
    Тёмное пробуждение смотреть онлайн
    Cкачать фильм Тёмное пробуждение бесплатно
    Тёмное пробуждение скачать торрент в хорошем качестве
    Тёмное пробуждение смотреть онлайн бесплатно в хорошем качестве


    Вы не можете начинать темы
    Вы не можете отвечать на сообщения
    Вы не можете редактировать свои сообщения
    Вы не можете удалять свои сообщения
    Вы не можете голосовать в опросах
    Вы не можете прикреплять файлы к сообщениям
    Вы можете скачивать файлы