Ссылка на приватное зеркало всего за 1$. Внимание количество ограничено!!!

OK

1+1

iTunes

мы

OK

1

WEB-DLRip

Джокер

Пифагор

Ведьмак / The Witcher сериал

iTunes

ПШазам

ОК

Оно 2

iTunes

30
pack

Вам бонус

ВАЖНО

!!Акция!!

Alien_RageХит недели

RePack

Resident Evil 21

ИГРА 18+

pack

RePack

jed

RePack

fifa19

RePack

Assassins Creed: Odyssey

RePack

NEED FOR SPEED™ PAYBACK

4 сезон

9 сезон

Бесстыжие 9 сезон

Все сериалы

все сериалы на PB.wtf

RePack

FAR CRY 5
  

Восьмилетняя помолвка / 8-nengoshi no hanayome (Такахиса Дзэдзэ) [2017, драма, мелодрама, BDRip 720p] MVO ["Синема УС"] pb.wtf

Восьмилетняя помолвка через торрент pb.wtf

Размер: 5.92 GB | Добавлен: 1 год 4 мес. назад | Торрент скачан:7 раз
Скачать  

21-09-2018 16:15 Восьмилетняя помолвка Скачать торрент  

Восьмилетняя помолвка / 8-nengoshi no hanayomeГод выпуска: 2017
Страна: Япония
Жанр: драма, мелодрама
Продолжительность: 02:02:17
Перевод: Любительский (многоголосый) | "Синема УС"
Субтитры: отсутствуют

Режиссер: Такахиса Дзэдзэ

rating

В ролях:

Такэру Сато, Тао Цутия, Кандзи Фурутати, Кэнта Хамано, Кэисукэ Хорибэ, Кадзуки Китамура, Юри Накамура, Тэтта Сугимото, Хироко Якусимару

Описание:

Хисаси и Маи должны были пожениться через три месяца, но Маи серьёзно заболевает и впадает в кому. Хисаси не сдаётся и не бросает свою невесту, парень не перестаёт молиться о её выздоровлении. Но когда Маи приходит в себя, она не может вспомнить ничего об их отношениях.

Качество: BDRip 720p
Формат: MKV

Видео: XviD,6 479 kb/s, 1280x688
Аудио#1: Русский, (AC3, 2 ch, 384 Кбит/с)

Общее
Уникальный идентификатор : 172672341379437397460132624416196654479 (0x81E77BB86F7888BBB93261B5C2C1F58F)
Полное имя : D:\The.8-year.engagement.2O17.P.BDRip.72Op_KOSHARA.mkv
Формат : Matroska
Версия формата : Version 2
Размер файла : 5,92 Гбайт
Продолжительность : 2 ч. 2 м.
Общий поток : 6928 Кбит/сек
Дата кодирования : UTC 2018-09-15 13:09:50
Программа кодирования : mkvmerge v8.3.0 ('Over the Horizon') 64bit
Библиотека кодирования : libebml v1.3.1 + libmatroska v1.4.2

Видео
Идентификатор : 1
Формат : AVC
Формат/Информация : Advanced Video Codec
Профиль формата : High@L4.1
Параметр CABAC формата : Да
Параметр RefFrames формата : 4 кадра
Идентификатор кодека : V_MPEG4/ISO/AVC
Продолжительность : 2 ч. 2 м.
Битрейт : 6479 Кбит/сек
Ширина : 1280 пикселей
Высота : 688 пикселей
Соотношение сторон : 1,85:1
Режим частоты кадров : Постоянный
Частота кадров : 23,976 (24000/1001) кадра/сек
Цветовое пространство : YUV
Субдискретизация насыщенности : 4:2:0
Битовая глубина : 8 бит
Тип развёртки : Прогрессивная
Бит/(Пиксели*Кадры) : 0.300
Размер потока : 5,42 Гбайт (92%)
Default : Да
Forced : Нет

Аудио
Идентификатор : 2
Формат : AC-3
Формат/Информация : Audio Coding 3
Расширение режима : CM (complete main)
Параметр Endianness формата : Big
Идентификатор кодека : A_AC3
Продолжительность : 2 ч. 2 м.
Вид битрейта : Постоянный
Битрейт : 448 Кбит/сек
Каналы : 2 канала
Расположение каналов : Front: L R
Частота : 48,0 КГц
Частота кадров : 31,250 кадров/сек (1536 spf)
Метод сжатия : С потерями
Размер потока : 392 Мбайт (6%)
Default : Да
Forced : Нет

pb.wtf



Скачать Восьмилетняя помолвка через торрент http://img11.lostpic.net/2018/09/21/3931295ef4a6ed75944db453bccbcd39.jpg Скачать фильм Восьмилетняя помолвка через торрент бесплантно в хорошем качестве Описание: Хисаси и Маи должны были пожениться через три месяца, но Маи серьёзно заболевает и впадает в кому. Хисаси не сдаётся и не бросает ... 10 10 3
Торрент: Зарегистрирован [2018-09-21 16:15] · скачан: 7 раз
Статус: T временная
Размер: 5.92 GB
Как cкачать? Как скачать Восьмилетняя помолвка через торрент | qTorrent

% Раздел Тема Автор DL S | L
T Фильмы (мультфильмы) cо спонсором показа (Новинки AVI/MKV) [ 2.05 GB ] Восьмилетняя помолвка / 8-nengoshi no hanayome [2017 HDRip] MVO ["Синема УС"] bober100 Скачать
1 | 0
T Фильмы (мультфильмы) cо спонсором показа (Новинки AVI/MKV) [ 1.37 GB ] Восьмилетняя помолвка / 8-nengoshi no hanayome [2017 HDRip] MVO ["Синема УС"] bober100 Скачать
1 | 0

28-11-2019 20:33  

Отключить всю рекламу на сайте

    Дорогой пользователь! Огромная просьба, поблагодарите релизера, оцените раздачу и оставьте свои комментарий, если Вы скачали Восьмилетняя помолвка через торрент бесплатно! Внесите свою лепту в развитие PiratBit!
    Комментировать посты могут только пользователи прошедшие не сложную регистрацию
    Показать сообщения:    

    Восьмилетняя помолвка через торрент
    Скачать бесплатно Восьмилетняя помолвка
    Восьмилетняя помолвка скачать торрент
    Восьмилетняя помолвка смотреть онлайн
    Cкачать фильм Восьмилетняя помолвка бесплатно
    Восьмилетняя помолвка скачать торрент в хорошем качестве
    Восьмилетняя помолвка смотреть онлайн бесплатно в хорошем качестве


    Вы не можете начинать темы
    Вы не можете отвечать на сообщения
    Вы не можете редактировать свои сообщения
    Вы не можете удалять свои сообщения
    Вы не можете голосовать в опросах
    Вы не можете прикреплять файлы к сообщениям
    Вы можете скачивать файлы