2 сезон

iTunes

1 сезон

1

iTunes

iTunes

iTunes

1 сезон

RePack

30

ИГРА 18+

pack

ВАЖНО

!!Акция!!

Alien_RageХит недели

RePack

MK11
pack

Забери бонус

RePack

jed

!!Акция!!

Alien_Rage

RePack

fifa19

RePack

Assassins Creed: Odyssey

RePack

NEED FOR SPEED™ PAYBACK

4 сезон

9 сезон

Бесстыжие 9 сезон

Все сериалы

все сериалы на PB.wtf

RePack

FAR CRY 5
  

Ускользающая жизнь / Наследство / Серии: 1-2 из 2 (Владимир Нахабцев) [2018, Детектив,мелодрама, SATRip] pb.wtf

Ускользающая жизнь через торрент pb.wtf

Размер: 1.22 GB | Добавлен: 2 года 1 мес. назад | Торрент скачан:58 раз
Скачать  

21-09-2018 18:59 Ускользающая жизнь Скачать торрент  

Ускользающая жизнь / НаследствоГод выпуска: 2018
Страна: Россия
Жанр: Детектив,мелодрама
Продолжительность: ~ 00:47:00 серия
Субтитры: отсутствуют

Режиссер: Владимир Нахабцев



В ролях:

Глафира Тарханова, Александр Никитин, Юрий Беляев, Андрей Чадов, Александр Подобед, Андрей Карако, Анна Полупанова, Алеся Самоховец, Светлана Аникей, Олег Ткачёв, Надежда Анципович, Алла Ельяшевич, Игорь Петров, Светлана Никифорова

Описание:

Успешный кардиохирург Альбина Виленская приходит в себя в больнице и узнает, что отец, известный адвокат, умер, лишив ее наследства, жених Игорь бесследно исчез, а сама она пыталась покончить с собой. Расследуя обстоятельства, которые привели к крушению ее жизни, Альбина снова оказывается на краю пропасти. К счастью, на ее пути появляется спаситель, с которым Альбину неожиданно многое связывает.

Качество: SATRip
Формат: AVI

Видео: XviD, ~ 1650 Кбит/с, 720x400
Аудио: MP3, 2 ch, 192 Кбит/с
скриншот  скриншот  скриншот  скриншот  

Общее
Полное имя : D:\Uskolzayushchaya.zhizn.2018.XviD.SATRip.25Kuzmich\Uskolzayushchaya.zhizn.(01.seriya.iz.02).XviD.SATRip.25Kuzmich.avi
Формат : AVI
Формат/Информация : Audio Video Interleave
Размер файла : 629 Мбайт
Продолжительность : 47 м. 31 с.
Общий поток : 1851 Кбит/сек
Программа кодирования : VirtualDubMod 1.5.10.3 | www.virtualdub-fr.org || (build 2550/release)
Библиотека кодирования : VirtualDubMod build 2550/release

Видео
Идентификатор : 0
Формат : MPEG-4 Visual
Профиль формата : Advanced Simple@L5
Параметр BVOP формата : 1
Параметр QPel формата : Нет
Параметр GMC формата : Без точки перехода
Параметр матрицы формата : Default (MPEG)
Идентификатор кодека : XVID
Идентификатор кодека/Подсказка : XviD
Продолжительность : 47 м. 31 с.
Битрейт : 1650 Кбит/сек
Ширина : 720 пикселей
Высота : 400 пикселей
Соотношение сторон : 16:9
Частота кадров : 25,000 кадров/сек
Цветовое пространство : YUV
Субдискретизация насыщенности : 4:2:0
Битовая глубина : 8 бит
Тип развёртки : Прогрессивная
Метод сжатия : С потерями
Бит/(Пиксели*Кадры) : 0.229
Размер потока : 561 Мбайт (89%)
Библиотека кодирования : XviD 1.2.1 (UTC 2008-12-04)

Аудио
Идентификатор : 1
Формат : MPEG Audio
Версия формата : Version 1
Профиль формата : Layer 3
Режим : Joint stereo
Идентификатор кодека : 55
Идентификатор кодека/Подсказка : MP3
Продолжительность : 47 м. 31 с.
Вид битрейта : Постоянный
Битрейт : 192 Кбит/сек
Каналы : 2 канала
Частота : 48,0 КГц
Метод сжатия : С потерями
Размер потока : 65,3 Мбайт (10%)
Выравнивание : Соединение по промежуткам
Продолжительность промежутка : 40 мс. (1,00 видеокадр)
Время предзагрузки промежутка : 504 мс.
Библиотека кодирования : LAME3.99r
Настройки программы : -m j -V 4 -q 2 -lowpass 18.6 -b 192

pb.wtf



Скачать Ускользающая жизнь через торрент http://i101.fastpic.ru/big/2018/0921/fa/d37851fe6b27840f47d0b8434be0aefa.png Скачать фильм Ускользающая жизнь через торрент бесплантно в хорошем качестве Описание: Успешный кардиохирург Альбина Виленская приходит в себя в больнице и узнает, что отец, известный адвокат, умер, лишив ее ... 10 10 3
Торрент: Зарегистрирован [2018-09-21 18:59] · скачан: 58 раз
Статус: √ проверено
Размер: 1.22 GB
Как cкачать? Как скачать Ускользающая жизнь через торрент | qTorrent

% Раздел Тема Автор DL S | L
Наши сериалы [ 1.25 GB ] Ускользающая жизнь / Серии: 1-2 из 2 [2018 SATRip-AVC] aleksan55 Скачать
1 | 0

28-11-2019 20:33  

Отключить всю рекламу на сайте

    Дорогой пользователь! Огромная просьба, поблагодарите релизера, оцените раздачу и оставьте свои комментарий, если Вы скачали Ускользающая жизнь через торрент бесплатно! Внесите свою лепту в развитие PiratBit!
    Комментировать посты могут только пользователи прошедшие не сложную регистрацию
    Показать сообщения:    

    Ускользающая жизнь через торрент
    Скачать бесплатно Ускользающая жизнь
    Ускользающая жизнь скачать торрент
    Ускользающая жизнь смотреть онлайн
    Cкачать фильм Ускользающая жизнь бесплатно
    Ускользающая жизнь скачать торрент в хорошем качестве
    Ускользающая жизнь смотреть онлайн бесплатно в хорошем качестве


    Вы не можете начинать темы
    Вы не можете отвечать на сообщения
    Вы не можете редактировать свои сообщения
    Вы не можете удалять свои сообщения
    Вы не можете голосовать в опросах
    Вы не можете прикреплять файлы к сообщениям
    Вы можете скачивать файлы