Ссылка на приватное зеркало нашего сайта всего за 1$. Внимание количество ограничено!!!

2 сезон

iTunes

1 сезон

1

2 сезон

2 сезон

iTunes

1 сезон

RePack

30

Ultimate

ВАЖНО

ИГРА 18+

pack

RePack

MK11
pack

Забери бонус

RePack

jed

!!Акция!!

Alien_Rage

RePack

fifa19

RePack

Assassins Creed: Odyssey

RePack

NEED FOR SPEED™ PAYBACK

4 сезон

9 сезон

Бесстыжие 9 сезон

Все сериалы

все сериалы на PB.wtf

RePack

FAR CRY 5
  

Ты / You / Сезон: 1 / Серии: 1-10 из 10 (Маркос Сига, Ли Толанд Кригер, Келли Сайрус) [2018, триллер, драма, криминал, WEB-DL 720p] MVO [Jaskier] pb.wtf

Ты через торрент pb.wtf

Размер: 8.54 GB | Добавлен: 2 года назад | Торрент скачан:15 раз
Скачать  

21-09-2018 19:47 Ты Скачать торрент  

Ты / You

Год выпуска: 2018
Страна: США
Жанр: триллер, драма, криминал
Продолжительность: ~ 00:48:00
Субтитры: отсутствуют
Перевод: Профессиональный (многоголосый закадровый) | Jaskier

Режиссёр: Маркос Сига, Ли Толанд Кригер, Келли Сайрус

В ролях:

Пенн Бэджли, Элизабет Лэил, Шэй Митчелл, Лука Падован, Николь Кан, Кэтрин Галлахер, Виктория Картагена, Дэниэл Косгров, Зак Черри, Хари Неф

Описание:

На что вы готовы ради любви? Когда успешный менеджер книжного магазина встречает талантливую начинающую писательницу, для него ответ очевиден: абсолютно на все. Используя соцсети, он узнает мельчайшие подробности о жизни девушки, чтобы подобраться к ней как можно ближе. Милая влюбленность перерастает в опасную одержимость. Парень готов тихо и методично устранить любое препятствие на пути к своей цели, даже если это препятствие — человек.

rating

Качество: WEB-DL 720p
Формат: MKV

Видео: X264, ~ 2450 kbps, 1280x720 (16:9), 23.976 fps
Аудио 1: AC3, 48,0 КГц, 2 ch, 192 kbps - Rus
Аудио 2: AC3, 48,0 КГц, 2 ch, 192 kbps - Eng


Реклама: аудио, два раза в начале и в конце по 13 секунд
Общее
Уникальный идентификатор                 : 240178493594521725160015216133040720545 (0xB4B0B1FDF20BEA11A6FE95A65F5F4AA1)
Полное имя                               : V:ONGOING\you. Season 1 (WEB l 720p l JASKiER)\you.s01e01.720p.JASKiER.mkv
Формат                                   : Matroska
Версия формата                           : Version 2
Размер файла                             : 991 Мбайт
Продолжительность                        : 48 м.
Общий поток                              : 2882 Кбит/сек
Дата кодирования                         : UTC 2018-09-21 17:39:58
Программа кодирования                    : mkvmerge v7.8.0 ('River Man') 32bit built on Apr  3 2015 12:11:22
Библиотека кодирования                   : libebml v1.3.1 + libmatroska v1.4.2

Видео
Идентификатор                            : 1
Формат                                   : AVC
Формат/Информация                        : Advanced Video Codec
Профиль формата                          : Main@L3.1
Параметр CABAC формата                   : Да
Параметр ReFrames формата                : 4 кадра
Идентификатор кодека                     : V_MPEG4/ISO/AVC
Продолжительность                        : 48 м.
Битрейт                                  : 2441 Кбит/сек
Ширина                                   : 1280 пикселей
Высота                                   : 720 пикселей
Соотношение сторон                       : 16:9
Режим частоты кадров                     : Постоянный
Частота кадров                           : 23,976 (24000/1001) кадра/сек
Цветовое пространство                    : YUV
Субдискретизация насыщенности            : 4:2:0
Битовая глубина                          : 8 бит
Тип развёртки                            : Прогрессивная
Бит/(Пиксели*Кадры)                      : 0.110
Размер потока                            : 839 Мбайт (85%)
Библиотека кодирования                   : Zencoder Video Encoding System
Default                                  : Да
Forced                                   : Нет

Аудио #1
Идентификатор                            : 2
Формат                                   : AC-3
Формат/Информация                        : Audio Coding 3
Расширение режима                        : CM (complete main)
Параметр Endianness формата              : Big
Идентификатор кодека                     : A_AC3
Продолжительность                        : 48 м.
Вид битрейта                             : Постоянный
Битрейт                                  : 192 Кбит/сек
Каналы                                   : 2 канала
Расположение каналов                     : Front: L R
Частота                                  : 48,0 КГц
Частота кадров                           : 31,250 кадров/сек (1536 spf)
Метод сжатия                             : С потерями
Размер потока                            : 66,0 Мбайт (7%)
Заголовок                                : Jaskier
Язык                                     : Russian
Default                                  : Да
Forced                                   : Нет

Аудио #2
Идентификатор                            : 3
Формат                                   : AC-3
Формат/Информация                        : Audio Coding 3
Расширение режима                        : CM (complete main)
Параметр Endianness формата              : Big
Идентификатор кодека                     : A_AC3
Продолжительность                        : 48 м.
Вид битрейта                             : Постоянный
Битрейт                                  : 192 Кбит/сек
Каналы                                   : 2 канала
Расположение каналов                     : Front: L R
Частота                                  : 48,0 КГц
Частота кадров                           : 31,250 кадров/сек (1536 spf)
Метод сжатия                             : С потерями
Размер потока                            : 66,0 Мбайт (7%)
Язык                                     : English
Default                                  : Нет
Forced                                   : Нет
скриншот  скриншот  скриншот  
Когда раздача ведётся путём добавления новых серий, при каждом добавлении создётся новый торрент. Чтобы начать докачку новой серии, пользователям необходимо сделать следующее:
(1) остановить скачивание,
(2) удалить старый торрент у себя из клиента (старые серии удалять не надо),
(3) скачать новый торрент и запустить его у себя в клиенте вместо старого, при этом указать клиенту путь в старую папку, куда и должно происходить скачивание новых серий.
Ваш клиент при этом должен произвести хеширование (проверку) старой папки (если не производит сам - помогите ему сделать это), и будет докачивать только те серии, которых у вас ещё нет. Старые серии при этом не удаляются, а продолжают раздаваться!
Eсли вы уже удалили старые серии, то предотвратить повторную закачку старых серий можно, отжав галочку в соответсвующих местах при запуске нового торрента. По возможности, желательно не удалять старые серии как можно дольше, чтобы релизёр не столько продолжал раздавать старые серии, а смог сконцентрироваться на новых.
pb.wtf



Скачать Ты через торрент http://i101.fastpic.ru/big/2018/0921/28/74dac2454714430609022f9f3daf1f28.png Скачать фильм Ты через торрент бесплантно в хорошем качестве Описание: На что вы готовы ради любви? Когда успешный менеджер книжного магазина встречает талантливую начинающую писательницу, для него ... 8.2 10 5
Торрент: Зарегистрирован [2018-11-19 16:27] · скачан: 15 раз
Статус: √ проверено
Размер: 8.54 GB
Как cкачать? Как скачать Ты через торрент | qTorrent

% Раздел Тема Автор DL S | L
Зарубежные сериалы [ 151.14 GB ] Ты - воплощение порока / Ты - отстой / You're The Worst / Сезон: 1-5 / Серии: 1-62 из 62 [2014-2019 WEB-DL 1080p] [MVO] killermax2013 Скачать
1 | 0
Зарубежные сериалы [ 27.65 GB ] Ты / You / Сезон: 1 / Серии 01-10 из 10 [2018 WEBRip 1080p] [MVO] killermax2013 Скачать
2 | 1
Зарубежные сериалы [ 19.19 GB ] Ты / You / Сезон: 2 / Серии: 1-10 из 10 [2019 WEB-DL 1080p] DUB [Пифагор / Netflix] bober100 Скачать
1 | 0
Зарубежные сериалы [ 7.18 GB ] Ты боишься темноты? / Are You Afraid of the Dark? / Сезон: 1 / Серии: 1-3 из 3 [2019 WEB-DL 1080p] MVO [TVShows] bober100 Скачать
1 | 0
Зарубежные сериалы [ 9.02 GB ] Ты / You / Сезон: 1 / Серии: 1-10 из 10 [2018 WEBRip 720p] MVO [AlexFilm] bober100 Скачать
1 | 0
Зарубежные сериалы [ 5.17 GB ] Ты / You / Сезон: 1 / Серии: 1-10 из 10 [2018 WEBRip] MVO [AlexFilm] bober100 Скачать
1 | 0
Зарубежные сериалы [ 5.34 GB ] Ты / You / Сезон: 1 / Серии: 1-10 из 10 [2018 WEBRip] MVO [Good People] bober100 Скачать
1 | 0

28-11-2019 20:33  

Отключить всю рекламу на сайте

    Дорогой пользователь! Огромная просьба, поблагодарите релизера, оцените раздачу и оставьте свои комментарий, если Вы скачали Ты через торрент бесплатно! Внесите свою лепту в развитие PiratBit!
    Комментировать посты могут только пользователи прошедшие не сложную регистрацию
    Показать сообщения:    

    Ты через торрент
    Скачать бесплатно Ты
    Ты скачать торрент
    Ты смотреть онлайн
    Cкачать фильм Ты бесплатно
    Ты скачать торрент в хорошем качестве
    Ты смотреть онлайн бесплатно в хорошем качестве


    Вы не можете начинать темы
    Вы не можете отвечать на сообщения
    Вы не можете редактировать свои сообщения
    Вы не можете удалять свои сообщения
    Вы не можете голосовать в опросах
    Вы не можете прикреплять файлы к сообщениям
    Вы можете скачивать файлы