Ссылка на приватное зеркало нашего сайта всего за 1$. Внимание количество ограничено!!!

2 сезон

iTunes

1 сезон

1

2 сезон

2 сезон

iTunes

1 сезон

RePack

30

Новинка

ВАЖНО

ИГРА 18+

pack

RePack

MK11
pack

Забери бонус

RePack

jed

!!Акция!!

Alien_Rage

RePack

fifa19

RePack

Assassins Creed: Odyssey

RePack

NEED FOR SPEED™ PAYBACK

4 сезон

9 сезон

Бесстыжие 9 сезон

Все сериалы

все сериалы на PB.wtf

RePack

FAR CRY 5
  

Невинные / The Innocents / Сезон: 1 / Серии: 1-8 из 8 (Фэррен Блэкберн, Джеми Донахью) [2018, триллер, фантастика, криминал, WEBRip 2160p] [HDR] 2xMVO [LostFilm, Baibako] pb.wtf

Невинные через торрент pb.wtf

Размер: 52.61 GB | Добавлен: 2 года 2 мес. назад | Торрент скачан:3 раза
Скачать  

21-09-2018 20:26 Невинные Скачать торрент  

Невинные / The Innocents

Год выпуска: 2018
Страна: США
Жанр: триллер, фантастика, криминал,
Продолжительность: ~ 00:50:00
Перевод:

Профессиональный (многоголосый закадровый) |
Профессиональный (многоголосый закадровый) |

Субтитры: Русские, английские (Forced, Full)

Режиссёр: Фэррен Блэкберн, Джеми Донахью

В ролях:

Сорча Граундселл, Гай Пирс, Йоуханнес Хёйкьюр Йоуханнессон, Лаура Бирн, Сэм Хэзелдайн, Артур Хьюз, Надин Маршалл, Лизе Рисом Олсен, Ингунн Беате Ёйен

Описание:

Быть подростком непросто, а если ты ещё и оборотень, взросление превращается в натуральный кошмар. 16-летняя Джун сбегает со своим бойфрендом из-под надзора строгого отца. Однако девушка не зря находилась под присмотром: она ещё не очень хорошо контролирует свои способности. Может быть, ей поможет профессор Халворсон…

rating

Качество: WEBRip 2160p | HDR
Формат: MKV

Видео: HEVC HDR, ~ 18.0 Mбит/с, 3840x1920, 24.000 кадр/с
Аудио#1: Русский (AC3, 2 ch, 384 Кбит/с) / Профессиональный многоголосый (LostFilm)
Аудио#2: Русский (AC3, 6 ch, 640 Кбит/с) / Любительский многоголосый (Baibako)
Аудио#3: Английский (E-AC3, 6 ch, 448 Кбит/с)
скриншот  скриншот  скриншот  скриншот  скриншот  

General
Unique ID : 57083855971740811771838930791820163170 (0x2AF1F364B9D95F1C6E008A18C09FF862)
Complete name : C:UsersPublicVideosSample VideosFilmyThe.Innocents.S01.2018.WEBRip.2160p.HDR.MediaClubThe.InnocentsS01E01.2018.WEBRip.2160p.HDR.MediaClub.mkv
Format : Matroska
Format version : Version 4
File size : 6.06 GiB
Duration : 46 min 35 s
Overall bit rate : 18.6 Mb/s
Encoded date : UTC 2018-09-06 17:57:24
Writing application : mkvmerge v25.0.0 ('Prog Noir') 64-bit
Writing library : libebml v1.3.6 + libmatroska v1.4.9
Cover : Yes
Attachments : cover.jpg

Video
ID : 1
Format : HEVC
Format/Info : High Efficiency Video Coding
Commercial name : HDR10
Format profile : Main 10@L5@Main
Codec ID : V_MPEGH/ISO/HEVC
Duration : 45 min 23 s
Bit rate : 17.6 Mb/s
Width : 3 840 pixels
Height : 1 920 pixels
Display aspect ratio : 2.000
Frame rate mode : Constant
Frame rate : 24.000 FPS
Color space : YUV
Chroma subsampling : 4:2:0
Bit depth : 10 bits
Bits/(Pixel*Frame) : 0.100
Stream size : 5.59 GiB (92%)
Title : WEBRip.2160p.HDR by Silverok
Writing library : x265 2.8+66-88ee12651e30:[Windows][MSVC 1915][64 bit] 10bit
Encoding settings : cpuid=1111039 / frame-threads=4 / numa-pools=0,28 / wpp / no-pmode / no-pme / no-psnr / no-ssim / log-level=2 / input-csp=1 / input-res=3840x1920 / interlace=0 / total-frames=0 / level-idc=0 / high-tier=1 / uhd-bd=0 / ref=5 / no-allow-non-conformance / repeat-headers / annexb / no-aud / no-hrd / info / hash=0 / no-temporal-layers / open-gop / min-keyint=24 / keyint=250 / gop-lookahead=0 / bframes=8 / b-adapt=2 / b-pyramid / bframe-bias=0 / rc-lookahead=40 / lookahead-slices=0 / scenecut=40 / radl=0 / no-intra-refresh / ctu=64 / min-cu-size=8 / no-rect / no-amp / max-tu-size=32 / tu-inter-depth=3 / tu-intra-depth=3 / limit-tu=4 / rdoq-level=2 / dynamic-rd=0.00 / no-ssim-rd / signhide / no-tskip / nr-intra=0 / nr-inter=0 / no-constrained-intra / strong-intra-smoothing / max-merge=4 / limit-refs=1 / limit-modes / me=3 / subme=4 / merange=57 / temporal-mvp / weightp / weightb / no-analyze-src-pics / deblock=0:0 / sao / no-sao-non-deblock / rd=6 / no-early-skip / rskip / no-fast-intra / no-tskip-fast / no-cu-lossless / b-intra / no-splitrd-skip / rdpenalty=0 / psy-rd=2.00 / psy-rdoq=1.00 / no-rd-refine / no-lossless / cbqpoffs=0 / crqpoffs=0 / rc=crf / crf=15.0 / qcomp=0.60 / qpstep=4 / stats-write=0 / stats-read=0 / ipratio=1.40 / pbratio=1.30 / aq-mode=1 / aq-strength=1.00 / cutree / zone-count=0 / no-strict-cbr / qg-size=32 / no-rc-grain / qpmax=69 / qpmin=0 / no-const-vbv / sar=0 / overscan=0 / videoformat=5 / range=0 / colorprim=9 / transfer=16 / colormatrix=9 / chromaloc=0 / display-window=0 / master-display=G(13250,34500)B(7500,3000)R(34000,16000)WP(15635,16450)L(10000000,1) / max-cll=2206,280 / min-luma=0 / max-luma=1023 / log2-max-poc-lsb=8 / vui-timing-info / vui-hrd-info / slices=1 / no-opt-qp-pps / no-opt-ref-list-length-pps / no-multi-pass-opt-rps / scenecut-bias=0.05 / no-opt-cu-delta-qp / no-aq-motion / hdr / hdr-opt / no-dhdr10-opt / no-idr-recovery-sei / analysis-reuse-level=5 / scale-factor=0 / refine-intra=0 / refine-inter=0 / refine-mv=0 / limit-sao / ctu-info=0 / no-lowpass-dct / refine-mv-type=0 / copy-pic=1 / max-ausize-factor=1.0 / no-dynamic-refine / no-single-sei
Default : Yes
Forced : No
Color range : Limited
Color primaries : BT.2020
Transfer characteristics : PQ
Matrix coefficients : BT.2020 non-constant
Mastering display color primaries : Display P3
Mastering display luminance : min: 0.0001 cd/m2, max: 1000 cd/m2
Maximum Content Light Level : 2206 cd/m2
Maximum Frame-Average Light Level : 280 cd/m2

Audio #1
ID : 2
Format : AC-3
Format/Info : Audio Coding 3
Commercial name : Dolby Digital
Codec ID : A_AC3
Duration : 45 min 59 s
Bit rate mode : Constant
Bit rate : 384 kb/s
Channel(s) : 2 channels
Channel layout : L R
Sampling rate : 48.0 kHz
Frame rate : 31.250 FPS (1536 SPF)
Bit depth : 16 bits
Compression mode : Lossy
Stream size : 126 MiB (2%)
Title : Профессиональный многоголосый (LostFilm)
Language : Russian
Service kind : Complete Main
Default : Yes
Forced : No

Audio #2
ID : 3
Format : AC-3
Format/Info : Audio Coding 3
Commercial name : Dolby Digital
Codec ID : A_AC3
Duration : 46 min 35 s
Bit rate mode : Constant
Bit rate : 640 kb/s
Channel(s) : 6 channels
Channel layout : L R C LFE Ls Rs
Sampling rate : 48.0 kHz
Frame rate : 31.250 FPS (1536 SPF)
Bit depth : 16 bits
Compression mode : Lossy
Stream size : 213 MiB (3%)
Title : Профессиональный многоголосый (BaibaKo)
Language : Russian
Service kind : Complete Main
Default : No
Forced : No

Audio #3
ID : 4
Format : E-AC-3 JOC
Format/Info : Enhanced AC-3 with Joint Object Coding
Commercial name : Dolby Digital Plus with Dolby Atmos
Codec ID : A_EAC3
Duration : 45 min 52 s
Bit rate mode : Constant
Bit rate : 448 kb/s
Channel(s) : 6 channels
Channel layout : L R C LFE Ls Rs
Sampling rate : 48.0 kHz
Frame rate : 31.250 FPS (1536 SPF)
Compression mode : Lossy
Stream size : 147 MiB (2%)
Language : English
Service kind : Complete Main
Default : No
Forced : No
Complexity index : 16
Number of dynamic objects : 15
Bed channel count : 1 channel
Bed channel configuration : LFE

Text #1
ID : 5
Format : UTF-8
Codec ID : S_TEXT/UTF8
Codec ID/Info : UTF-8 Plain Text
Duration : 44 min 9 s
Bit rate : 51 b/s
Count of elements : 367
Stream size : 16.7 KiB (0%)
Title : Full
Language : Russian
Default : Yes
Forced : No

Text #2
ID : 6
Format : UTF-8
Codec ID : S_TEXT/UTF8
Codec ID/Info : UTF-8 Plain Text
Duration : 43 min 51 s
Bit rate : 0 b/s
Count of elements : 4
Stream size : 75.0 Bytes (0%)
Title : Forced
Language : English
Default : No
Forced : No

Text #3
ID : 7
Format : UTF-8
Codec ID : S_TEXT/UTF8
Codec ID/Info : UTF-8 Plain Text
Duration : 44 min 57 s
Bit rate : 49 b/s
Count of elements : 550
Stream size : 16.3 KiB (0%)
Title : Full
Language : English
Default : No
Forced : No

pb.wtf



Скачать Невинные через торрент http://img11.lostpic.net/2018/09/21/f0280e5b7428186465f5d5e032c07732.jpg Скачать фильм Невинные через торрент бесплантно в хорошем качестве Описание: Быть подростком непросто, а если ты ещё и оборотень, взросление превращается в натуральный кошмар. 16-летняя Джун сбегает со ... 10 10 2
Info! Золотая раздача, скачанное не засчитывается.
Торрент: Зарегистрирован [2018-09-21 20:26] · скачан: 3 раз
Статус: √ проверено
Размер: 52.61 GB
Как cкачать? Как скачать Невинные через торрент | qTorrent

% Раздел Тема Автор DL S | L
Зарубежные сериалы [ 5.46 GB ] Невинные / The Innocents / Сезон: 1 / Серии: 1-8 из 8 [2018 WEB-DLRip] MVO [LostFilm] bober100 Скачать
1 | 0
Зарубежные сериалы [ 5.45 GB ] Невинные / The Innocents / Сезон: 1 / Серии: 1-8 из 8 [2018 WEBRip 720p] MVO [Jaskier] bober100 Скачать
1 | 0
Зарубежные сериалы [ 4.36 GB ] Невинные / The Innocents / Сезон: 1 / Серии: 1-8 из 8 [2018 WEBRip] MVO [Jaskier] bober100 Скачать
1 | 0
Зарубежные сериалы [ 4.67 GB ] Невинные / The Innocents / Сезон: 1 / Серии 1-8 из 8 [2018 WEBRip] MVO [BaibaKo] GEKADOL Скачать
1 | 0
Зарубежные сериалы [ 7.63 GB ] Невинные / The Innocents / Сезон: 1 / Серии 1-8 из 8 [2018 WEBRip 720p] [DVO] killermax2013 Скачать
1 | 0
Зарубежные сериалы [ 13.99 GB ] Невинные / The Innocents / Сезон: 1 / Серии 1-8 из 8 [2018 WEB-DL 1080p] [MVO] killermax2013 Скачать
1 | 0

28-11-2019 20:33  

Отключить всю рекламу на сайте

    Дорогой пользователь! Огромная просьба, поблагодарите релизера, оцените раздачу и оставьте свои комментарий, если Вы скачали Невинные через торрент бесплатно! Внесите свою лепту в развитие PiratBit!
    Комментировать посты могут только пользователи прошедшие не сложную регистрацию
    Показать сообщения:    

    Невинные через торрент
    Скачать бесплатно Невинные
    Невинные скачать торрент
    Невинные смотреть онлайн
    Cкачать фильм Невинные бесплатно
    Невинные скачать торрент в хорошем качестве
    Невинные смотреть онлайн бесплатно в хорошем качестве


    Вы не можете начинать темы
    Вы не можете отвечать на сообщения
    Вы не можете редактировать свои сообщения
    Вы не можете удалять свои сообщения
    Вы не можете голосовать в опросах
    Вы не можете прикреплять файлы к сообщениям
    Вы можете скачивать файлы