Всегда рабочее зеркало просто перед .vidak.icu напиши любое слово или цифру, Пример http://vzc.vidak.icu

>

7.4

iTunes

7.4

2 сезон

9.4

1 сезон

1

7.4

2 сезон

7.2

iTunes

6.0

MVO

13

6.1

iTunes

8.3

Пиратка

30

ULTIMATE

pack

9.9

Лицензия

ВАЖНО

ИГРА 18+

pack

7.3

RePack

MK11

7.7

RePack

jed

7.8

RePack

fifa19

8.5

RePack

RDR2

RePack

NEED FOR SPEED™ PAYBACK

1 сезон

9 сезон

Бесстыжие 9 сезон

Все сериалы

все сериалы на PB.wtf

RePack

FAR CRY 5

Anonymous, доброе утро, мы катастрофически не успеваем собрать деньги на оплату серверов, помогите нам пожалуйста 5,10,15р., для нас важна любая помощь . В качестве благодарности мы отключим Вам всю рекламу на сайте (укажите свой ник в строку Ваше имя)!

×
  
Magnet ссылка

Кажется, мы остались одни / I Think We're Alone Now (Майк Маковски) [2018, Фантастика, Драма, WEB-DL 1080p] [AMZN Version] AVO [BadBajo] pb.wtf

Кажется, мы остались одни через торрент pb.wtf

Размер: 4.85 GB | Добавлен: 3 года 3 мес. назад | Торрент скачан:40 раз
Смотреть онлайн Кажется, мы остались одни | Скачать    Ребята, помогите собрать деньги на оплату серверов!!!

22-09-2018 01:41 Кажется, мы остались одни Скачать торрент  

Кажется, мы остались одни / I Think We're Alone Now
Год выпуска: 2018
Страна: США
Жанр: Фантастика, Драма
Продолжительность: 01:39:18
Перевод: Авторский (одноголосый) |
Субтитры: Английские (отключаемые)

Режиссер: Майк Маковски

rating

В ролях:

Питер Динклэйдж, Элль Фэннинг, Шарлотта Генсбур, Пол Джаматти

Описание:

Заветная мечта Дела становится реальностью, когда человечество загадочно исчезает с лица земли. Одиночество и порядок в его новом идеальном мире нарушает чудом уцелевшая девушка Грейс.

Качество: WEB-DL 1080p | AMZN Version
Формат: MKV

Видео: 1920х800, ~5711 Kbps, 23.976 (24000/1001) FPS
Аудио#1: AC3, 6 ch, 640 Kbps (BadBajo)
Аудио#2: Е-AC3, 6 ch, 640 Kbps
скриншот  скриншот  скриншот  скриншот  скриншот  

Общее
Уникальный идентификатор : 312324207069026232816890997564929370410 (0xEAF7744B5FDFC68A3F0A22A67B1A692A)
Полное имя : D:\I.Think.Were.Alone.Now.2018.1080p.AMZN.WEB-DL_rus_BadBajo .mkv
Формат : Matroska
Версия формата : Version 4 / Version 2
Размер файла : 4,85 Гбайт
Продолжительность : 1 ч. 39 м.
Общий поток : 6993 Кбит/сек
Название фильма : I.Think.Were.Alone.Now.2018.1080p.AMZN.WEB-DL.DDP5.1.H.264_rus_BadBajo
Дата кодирования : UTC 2018-09-21 20:16:19
Программа кодирования : mkvmerge v20.0.0 ('I Am The Sun') 64-bit
Библиотека кодирования : libebml v1.3.5 + libmatroska v1.4.8
Обложка : Yes
Attachments : cover.jpg

Видео
Идентификатор : 1
Формат : AVC
Формат/Информация : Advanced Video Codec
Профиль формата : High@L4
Параметр CABAC формата : Да
Параметр RefFrames формата : 4 кадра
Идентификатор кодека : V_MPEG4/ISO/AVC
Продолжительность : 1 ч. 39 м.
Битрейт : 5711 Кбит/сек
Ширина : 1920 пикселей
Высота : 800 пикселей
Соотношение сторон : 2,40:1
Режим частоты кадров : Постоянный
Частота кадров : 23,976 (24000/1001) кадра/сек
Цветовое пространство : YUV
Субдискретизация насыщенности : 4:2:0
Битовая глубина : 8 бит
Тип развёртки : Прогрессивная
Бит/(Пиксели*Кадры) : 0.151
Размер потока : 3,87 Гбайт (80%)
Default : Да
Forced : Нет
Цветовой диапазон : Limited
Основные цвета : BT.709
Характеристики трансфера : BT.709
Коэффициенты матрицы : BT.709

Аудио #1
Идентификатор : 2
Формат : AC-3
Формат/Информация : Audio Coding 3
Расширение режима : CM (complete main)
Параметр Endianness формата : Big
Идентификатор кодека : A_AC3
Продолжительность : 1 ч. 39 м.
Вид битрейта : Постоянный
Битрейт : 640 Кбит/сек
Каналы : 6 каналов
Расположение каналов : Front: L C R, Side: L R, LFE
Частота : 48,0 КГц
Частота кадров : 31,250 кадров/сек (1536 spf)
Метод сжатия : С потерями
Размер потока : 455 Мбайт (9%)
Заголовок : I.Think.Were.Alone.Now.2018_AC3_rus_BadBajo
Язык : Russian
Default : Да
Forced : Да

Аудио #2
Идентификатор : 3
Формат : E-AC-3
Формат/Информация : Audio Coding 3
Параметр Endianness формата : Big
Идентификатор кодека : A_EAC3
Продолжительность : 1 ч. 39 м.
Вид битрейта : Постоянный
Битрейт : 640 Кбит/сек
Каналы : 6 каналов
Расположение каналов : Front: L C R, Side: L R, LFE
Частота : 48,0 КГц
Частота кадров : 187,500 кадров/сек (256 spf)
Метод сжатия : С потерями
Размер потока : 455 Мбайт (9%)
Заголовок : I.Think.Were.Alone.Now.2018.EAC3_eng
Язык : English
Default : Нет
Forced : Нет

Текст
Идентификатор : 4
Формат : UTF-8
Идентификатор кодека : S_TEXT/UTF8
Идентификатор кодека/Информация : UTF-8 Plain Text
Заголовок : SDH
Язык : English
Default : Нет
Forced : Нет

Меню
00:00:00.000 : :01
00:30:00.000 : :02
01:00:00.000 : :03
01:30:00.000 : :04

pb.wtf



Скачать Кажется, мы остались одни через торрент https://b.radikal.ru/b22/1809/1f/08c61cff5d6e.jpg Скачать, смотреть онлайн Кажется, мы остались одни бесплантно в хорошем качестве Описание: Заветная мечта Дела становится реальностью, когда человечество загадочно исчезает с лица земли. Одиночество и порядок в его новом ... 9 10 3
Торрент: Зарегистрирован [2018-09-22 01:41] · скачан: 40 раз
Статус: √ проверено
Размер: 4.85 GB
Как cкачать? Как скачать Кажется, мы остались одни через торрент | UTorrent

28-11-2019 20:33  

Отключить всю рекламу на сайте

    Дорогой пользователь! Огромная просьба, поблагодарите релизера, оцените раздачу и оставьте свои комментарий, если Вы скачали Кажется, мы остались одни через торрент бесплатно!
    Комментировать посты могут только пользователи прошедшие не сложную регистрацию
    Показать сообщения:    

    Кажется, мы остались одни через торрент
    Скачать бесплатно Кажется, мы остались одни
    Кажется, мы остались одни скачать торрент
    Кажется, мы остались одни смотреть онлайн
    Cкачать фильм Кажется, мы остались одни бесплатно
    Кажется, мы остались одни скачать торрент в хорошем качестве
    Кажется, мы остались одни смотреть онлайн бесплатно в хорошем качестве


    Вы не можете начинать темы
    Вы не можете отвечать на сообщения
    Вы не можете редактировать свои сообщения
    Вы не можете удалять свои сообщения
    Вы не можете голосовать в опросах
    Вы не можете прикреплять файлы к сообщениям
    Вы можете скачивать файлы