Ссылка на приватное зеркало нашего сайта всего за 1$. Внимание количество ограничено!!!

2 сезон

iTunes

1 сезон

1

iTunes

iTunes

iTunes

1 сезон

RePack

30

ИГРА 18+

pack

ВАЖНО

!!Акция!!

Alien_RageХит недели

RePack

MK11
pack

Забери бонус

RePack

jed

!!Акция!!

Alien_Rage

RePack

fifa19

RePack

Assassins Creed: Odyssey

RePack

NEED FOR SPEED™ PAYBACK

4 сезон

9 сезон

Бесстыжие 9 сезон

Все сериалы

все сериалы на PB.wtf

RePack

FAR CRY 5
  

Ментовские войны / Сезон: 11 / Серии: 1-16 из 16 (Алан Дзоциев) [2017-2018, Боевик, детектив, криминал, HDTVRip 720p] pb.wtf

Ментовские войны через торрент pb.wtf

Размер: 18.71 GB | Добавлен: 2 года 1 мес. назад | Торрент скачан:184 раза
Скачать  

22-09-2018 02:02 Ментовские войны Скачать торрент  

Ментовские войны
Год выпуска: 2017-2018
Страна: Россия
Жанр: Боевик, детектив, криминал
Продолжительность: ~ 00:45:00
Субтитры: отсутствуют

Режиссер: Алан Дзоциев

rating

В ролях:

Александр Устюгов, Всеволод Цурило, Андрей Кузнецов, Роберт Студеновский, Андрей Аладьин, Мария Иванова (IV), Светлана Смирнова-Кацагаджиева, Дмитрий Лебедев (III), Александр Лисицын, Марина Игнатова, Денис Решетников, Евгения Устюгова, Александр Марушев, Ирина Сотикова, Андрей Мокеев, Руслан Китайгородский, Кристина Оленникова, Наталья Мызникова, Арсений Бородин (II), Андрей Биланов

Описание:

Роман Шилов, занявший высокий пост заместителя начальника ГУ МВД по Санкт-Петербургу и Ленинградской области, выходит на новый уровень борьбы с оборотнями в погонах. Теперь он вынужден привыкать к нелюбимой бумажной волоките, ради которой оставил оперативную работу, и координировать работу всей городской полиции. Но далеко не все подчинённые одобряют излишнее рвение Романа Георгиевича...

Качество: HDTVRip 720p
Формат: MKV

Видео: MPEG-4 AVC, ~ 3500 Кбит/с, 1280x720, 25 fps
Аудио#1: AC3, 2 ch, 192 Кбит/с
скриншот  скриншот  скриншот  скриншот  

Общее
Уникальный идентификатор : 187669223447722047786060787076179633647 (0x8D2FC717DB85BF6EA08109DACD0725EF)
Полное имя : D:\Mentovskie.voyny-11.HDTVRip.(720p).GeneralFilm\01.Mentovskie.voyny-11.HDTVRip.(720p).GeneralFilm.mkv
Формат : Matroska
Версия формата : Version 2
Размер файла : 1,16 Гбайт
Продолжительность : 44 м. 49 с.
Общий поток : 3694 Кбит/сек
Дата кодирования : UTC 2018-09-18 17:33:55
Программа кодирования : mkvmerge v7.8.0 ('River Man') 32bit built on Apr 3 2015 12:11:22
Библиотека кодирования : libebml v1.3.1 + libmatroska v1.4.2

Видео
Идентификатор : 1
Формат : AVC
Формат/Информация : Advanced Video Codec
Профиль формата : High@L4.1
Параметр CABAC формата : Да
Параметр RefFrames формата : 9 кадров
Идентификатор кодека : V_MPEG4/ISO/AVC
Продолжительность : 44 м. 49 с.
Битрейт : 3500 Кбит/сек
Ширина : 1280 пикселей
Высота : 720 пикселей
Соотношение сторон : 16:9
Режим частоты кадров : Постоянный
Частота кадров : 25,000 кадров/сек
Цветовое пространство : YUV
Субдискретизация насыщенности : 4:2:0
Битовая глубина : 8 бит
Тип развёртки : Прогрессивная
Бит/(Пиксели*Кадры) : 0.152
Размер потока : 1,07 Гбайт (93%)
Библиотека кодирования : x264 core 146 r2538 121396c
Настройки программы : cabac=1 / ref=9 / deblock=1:-2:-1 / analyse=0x3:0x113 / me=umh / subme=9 / psy=1 / psy_rd=1.00:0.15 / mixed_ref=1 / me_range=32 / chroma_me=1 / trellis=2 / 8x8dct=1 / cqm=0 / deadzone=21,11 / fast_pskip=0 / chroma_qp_offset=-3 / threads=18 / lookahead_threads=3 / sliced_threads=0 / nr=0 / decimate=1 / interlaced=0 / bluray_compat=0 / constrained_intra=0 / bframes=9 / b_pyramid=2 / b_adapt=2 / b_bias=0 / direct=1 / weightb=1 / open_gop=0 / weightp=2 / keyint=250 / keyint_min=25 / scenecut=40 / intra_refresh=0 / rc_lookahead=40 / rc=2pass / mbtree=0 / bitrate=3500 / ratetol=1.0 / qcomp=0.60 / qpmin=0 / qpmax=69 / qpstep=4 / cplxblur=20.0 / qblur=0.5 / vbv_maxrate=14000 / vbv_bufsize=14000 / nal_hrd=none / filler=0 / ip_ratio=1.40 / pb_ratio=1.30 / aq=2:1.00
Default : Да
Forced : Нет
Цветовой диапазон : Limited
Основные цвета : BT.709
Характеристики трансфера : BT.709
Коэффициенты матрицы : BT.709

Аудио
Идентификатор : 2
Формат : AC-3
Формат/Информация : Audio Coding 3
Расширение режима : CM (complete main)
Параметр Endianness формата : Big
Идентификатор кодека : A_AC3
Продолжительность : 44 м. 49 с.
Вид битрейта : Постоянный
Битрейт : 192 Кбит/сек
Каналы : 2 канала
Расположение каналов : Front: L R
Частота : 48,0 КГц
Частота кадров : 31,250 кадров/сек (1536 spf)
Метод сжатия : С потерями
Размер потока : 61,6 Мбайт (5%)
Default : Да
Forced : Нет

pb.wtf



Скачать Ментовские войны через торрент http://img11.lostpic.net/2018/09/22/0068b21d0803ae223886fbef8f8bc37b.png Скачать фильм Ментовские войны через торрент бесплантно в хорошем качестве Описание: Роман Шилов, занявший высокий пост заместителя начальника ГУ МВД по Санкт-Петербургу и Ленинградской области, выходит на новый ... 10 10 5
Info! Серебряная раздача, засчитывается только 50% скачанного.
Торрент: Зарегистрирован [2018-09-22 02:02] · скачан: 184 раз
Статус: √ проверено
Размер: 18.71 GB
Как cкачать? Как скачать Ментовские войны через торрент | qTorrent

% Раздел Тема Автор DL S | L
Наши сериалы [ 11.09 GB ] Ментовские войны / Сезон: 11 / Серии: 1-16 из 16 [2017-2018 HDTVRip-AVC] bober100 Скачать
1 | 0
Наши сериалы [ 97.46 GB ] Ментовские войны / Полная Коллекция / 1-11 сезоны: 164 серии из 164 + Эпилог + 4 фильма [2005-2018 WEB-DLRip HDTVRip SATRip] mihis Скачать
4 | 2
Наши сериалы [ 8.62 GB ] Ментовские войны / Сезон: 11 / Серии: 1-16 из 16 [2017-2018 HDTVRip] bober100 Скачать
1 | 0
Наши сериалы [ 9.07 GB ] Ментовские войны 11/ Сезон:11 / Серии: 1-16 из 16 [2017 SATRip-AVC] aleksan55 Скачать
2 | 0
Наши сериалы [ 42.92 GB ] Ментовские войны / Сезон: 11 / Серии: 1-16 из 16 [2017-2018 HDTV 1080i] bober100 Скачать
1 | 0
Наши сериалы [ 9.66 GB ] Ментовские войны / Сезон 11 / Серия 1- 16 из 16 / [2017 SATRip] oleg8 Скачать
1 | 0

28-11-2019 20:33  

Отключить всю рекламу на сайте

    Дорогой пользователь! Огромная просьба, поблагодарите релизера, оцените раздачу и оставьте свои комментарий, если Вы скачали Ментовские войны через торрент бесплатно! Внесите свою лепту в развитие PiratBit!
    Комментировать посты могут только пользователи прошедшие не сложную регистрацию
    Показать сообщения:    

    Ментовские войны через торрент
    Скачать бесплатно Ментовские войны
    Ментовские войны скачать торрент
    Ментовские войны смотреть онлайн
    Cкачать фильм Ментовские войны бесплатно
    Ментовские войны скачать торрент в хорошем качестве
    Ментовские войны смотреть онлайн бесплатно в хорошем качестве


    Вы не можете начинать темы
    Вы не можете отвечать на сообщения
    Вы не можете редактировать свои сообщения
    Вы не можете удалять свои сообщения
    Вы не можете голосовать в опросах
    Вы не можете прикреплять файлы к сообщениям
    Вы можете скачивать файлы