Ссылка на приватное зеркало нашего сайта всего за 1$. Внимание количество ограничено!!!

2 сезон

iTunes

1 сезон

1

2 сезон

2 сезон

iTunes

1 сезон

RePack

30

Ultimate

ВАЖНО

ИГРА 18+

pack

RePack

MK11
pack

Забери бонус

RePack

jed

!!Акция!!

Alien_Rage

RePack

fifa19

RePack

Assassins Creed: Odyssey

RePack

NEED FOR SPEED™ PAYBACK

4 сезон

9 сезон

Бесстыжие 9 сезон

Все сериалы

все сериалы на PB.wtf

RePack

FAR CRY 5
  

Нетипичный / Atypical / Сезон: 2 / Серии: 1-10 из 10 (Сет Гордон, Майкл Патрик Джэнн, Джо Кесслер) [2018, Комедия, драма, WEBRip] MVO [Jaskier] pb.wtf

Нетипичный через торрент pb.wtf

Размер: 3.43 GB | Добавлен: 2 года 2 мес. назад | Торрент скачан:4 раза
Скачать  

22-09-2018 09:14 Нетипичный Скачать торрент  

Нетипичный / Atypical • Год выпуска: 2018
• Страна: США
• Жанр: Комедия, драма
• Продолжительность: ~ 00:45:00
• Перевод: Профессиональный (многоголосый закадровый) | Jaskier
• Субтитры: отсутствуют

• Режиссёр: Сет Гордон, Майкл Патрик Джэнн, Джо Кесслер

В ролях:

Ник Додани, Дженна Бойд, Джино Монтесинос, Нина Амери, Тейлор Ф. Бэйли, Ариэла Барер и др.

Описание:

На первый взгляд 18-летний Сэм производит впечатление обычного юноши, но стоит к нему присмотреться, как становится понятно, что у него есть некоторые отклонения. А именно — расстройство аутистического спектра. Из-за него Сэму сложно строить отношения с окружающими, его поведение кажется странным. Пока герой пытается разобраться с устройством личной жизни и определиться со своим предназначением, проблем у него меньше не становится, и решать их приходится родным парня.

rating

• Качество: WEBRip
• Формат: AVI

• Видео: XviD, ~ 1350 kbps, 720x400 (16:9), 23.976 fps
• Аудио 1: MP3, 48,0 КГц, 2 ch, 128 kbps - Rus
• Аудио 2: MP3, 48,0 КГц, 2 ch, 128 kbps - Eng


Реклама: Присутствует звуковая (два раза в начале и конце по 10 сек.)
Переведено и озвучено студией JASKIER
Общее
Полное имя                               : G:\Загрузки\Atypical.S02E01.WEBRip.Rus.Eng.Jaskier.avi
Формат                                   : AVI
Формат/Информация                        : Audio Video Interleave
Размер файла                             : 351 Мбайт
Продолжительность                        : 30 м. 16 с.
Общий поток                              : 1620 Кбит/сек
Программа кодирования                    : VirtualDubMod 1.5.10.3 | www.virtualdub-fr.org || (build 2550/release)
Библиотека кодирования                   : VirtualDubMod build 2550/release

Видео
Идентификатор                            : 0
Формат                                   : MPEG-4 Visual
Профиль формата                          : Advanced Simple@L5
Настройки формата                        : BVOP1 / Custom Matrix
Параметр BVOP формата                    : 1
Параметр QPel формата                    : Нет
Параметр GMC формата                     : Без точки перехода
Параметр матрицы формата                 : Выборочная
Идентификатор кодека                     : XVID
Идентификатор кодека/Подсказка           : XviD
Продолжительность                        : 30 м. 16 с.
Битрейт                                  : 1350 Кбит/сек
Ширина                                   : 720 пикселей
Высота                                   : 400 пикселей
Соотношение сторон                       : 16:9
Частота кадров                           : 23,976 (24000/1001) кадра/сек
Частота кадров в оригинале               : 23,976 (23976/1000) кадра/сек
Цветовое пространство                    : YUV
Субдискретизация насыщенности            : 4:2:0
Битовая глубина                          : 8 бит
Тип развёртки                            : Прогрессивная
Метод сжатия                             : С потерями
Бит/(Пиксели*Кадры)                      : 0.195
Размер потока                            : 292 Мбайт (83%)
Библиотека кодирования                   : XviD 73

Аудио #1
Идентификатор                            : 1
Формат                                   : MPEG Audio
Версия формата                           : Version 1
Профиль формата                          : Layer 3
Настройки формата                        : Joint stereo / MS Stereo
Идентификатор кодека                     : 55
Идентификатор кодека/Подсказка           : MP3
Продолжительность                        : 30 м. 16 с.
Вид битрейта                             : Постоянный
Битрейт                                  : 128 Кбит/сек
Каналы                                   : 2 канала
Частота                                  : 48,0 КГц
Метод сжатия                             : С потерями
Размер потока                            : 27,7 Мбайт (8%)
Выравнивание                             : Соединение по промежуткам
Продолжительность промежутка             : 42  мс. (1,00 видеокадр)
Время предзагрузки промежутка            : 504  мс.

Аудио #2
Идентификатор                            : 2
Формат                                   : MPEG Audio
Версия формата                           : Version 1
Профиль формата                          : Layer 3
Настройки формата                        : Joint stereo / MS Stereo
Идентификатор кодека                     : 55
Идентификатор кодека/Подсказка           : MP3
Продолжительность                        : 30 м. 16 с.
Вид битрейта                             : Постоянный
Битрейт                                  : 128 Кбит/сек
Каналы                                   : 2 канала
Частота                                  : 48,0 КГц
Метод сжатия                             : С потерями
Размер потока                            : 27,7 Мбайт (8%)
Выравнивание                             : Соединение по промежуткам
Продолжительность промежутка             : 42  мс. (1,00 видеокадр)
Время предзагрузки промежутка            : 504  мс.
скриншот  скриншот  скриншот  
Когда раздача ведётся путём добавления новых серий, при каждом добавлении создётся новый торрент. Чтобы начать докачку новой серии, пользователям необходимо сделать следующее:
(1) остановить скачивание,
(2) удалить старый торрент у себя из клиента (старые серии удалять не надо),
(3) скачать новый торрент и запустить его у себя в клиенте вместо старого, при этом указать клиенту путь в старую папку, куда и должно происходить скачивание новых серий.
Ваш клиент при этом должен произвести хеширование (проверку) старой папки (если не производит сам - помогите ему сделать это), и будет докачивать только те серии, которых у вас ещё нет. Старые серии при этом не удаляются, а продолжают раздаваться!
Eсли вы уже удалили старые серии, то предотвратить повторную закачку старых серий можно, отжав галочку в соответсвующих местах при запуске нового торрента. По возможности, желательно не удалять старые серии как можно дольше, чтобы релизёр не столько продолжал раздавать старые серии, а смог сконцентрироваться на новых.
pb.wtf



Скачать Нетипичный через торрент http://img11.lostpic.net/2018/09/18/8b3594ff227d49c2ab92037c00763cbc.png Скачать фильм Нетипичный через торрент бесплантно в хорошем качестве Описание: На первый взгляд 18-летний Сэм производит впечатление обычного юноши, но стоит к нему присмотреться, как становится понятно, что ... 10 10 2
Торрент: Зарегистрирован [2018-09-22 09:14] · скачан: 4 раз
Статус: √ проверено
Размер: 3.43 GB
Как cкачать? Как скачать Нетипичный через торрент | qTorrent

% Раздел Тема Автор DL S | L
Зарубежные сериалы [ 5.77 GB ] Нетипичный / Atypical / Сезон: 2 / Серии: 1-10 из 10 [2018 WEBRip 720p] MVO [Jaskier] bober100 Скачать
1 | 0
Зарубежные сериалы [ 3.39 GB ] Нетипичный / Atypical / Сезон: 2 / Серии 1-10 из 10 [2018 WEBRip] MVO [BaibaKo] GEKADOL Скачать
1 | 0

28-11-2019 20:33  

Отключить всю рекламу на сайте

    Дорогой пользователь! Огромная просьба, поблагодарите релизера, оцените раздачу и оставьте свои комментарий, если Вы скачали Нетипичный через торрент бесплатно! Внесите свою лепту в развитие PiratBit!
    Комментировать посты могут только пользователи прошедшие не сложную регистрацию
    Показать сообщения:    

    Нетипичный через торрент
    Скачать бесплатно Нетипичный
    Нетипичный скачать торрент
    Нетипичный смотреть онлайн
    Cкачать фильм Нетипичный бесплатно
    Нетипичный скачать торрент в хорошем качестве
    Нетипичный смотреть онлайн бесплатно в хорошем качестве


    Вы не можете начинать темы
    Вы не можете отвечать на сообщения
    Вы не можете редактировать свои сообщения
    Вы не можете удалять свои сообщения
    Вы не можете голосовать в опросах
    Вы не можете прикреплять файлы к сообщениям
    Вы можете скачивать файлы