Ссылка на приватное зеркало нашего сайта всего за 1$. Внимание количество ограничено!!!

2 сезон

iTunes

1 сезон

1

2 сезон

2 сезон

iTunes

1 сезон

RePack

30

Ultimate

ВАЖНО

ИГРА 18+

pack

RePack

MK11
pack

Забери бонус

RePack

jed

!!Акция!!

Alien_Rage

RePack

fifa19

RePack

Assassins Creed: Odyssey

RePack

NEED FOR SPEED™ PAYBACK

4 сезон

9 сезон

Бесстыжие 9 сезон

Все сериалы

все сериалы на PB.wtf

RePack

FAR CRY 5
  

Нетипичный / Atypical / Сезон: 2 / Серии: 1-10 из 10 (Сет Гордон, Майкл Патрик Джэнн, Джо Кесслер) [2018, Комедия, драма, WEBRip 720p] MVO [Jaskier] pb.wtf

Нетипичный через торрент pb.wtf

Размер: 5.77 GB | Добавлен: 2 года 2 мес. назад | Торрент скачан:3 раза
Скачать  

22-09-2018 09:15 Нетипичный Скачать торрент  

Нетипичный / Atypical • Год выпуска: 2018
• Страна: США
• Жанр: Комедия, драма
• Продолжительность: ~ 00:45:00
• Перевод: Профессиональный (многоголосый закадровый) | Jaskier
• Субтитры: отсутствуют

• Режиссёр: Сет Гордон, Майкл Патрик Джэнн, Джо Кесслер

• В ролях: Ник Додани, Дженна Бойд, Джино Монтесинос, Нина Амери, Тейлор Ф. Бэйли, Ариэла Барер и др.

Описание:

На первый взгляд 18-летний Сэм производит впечатление обычного юноши, но стоит к нему присмотреться, как становится понятно, что у него есть некоторые отклонения. А именно — расстройство аутистического спектра. Из-за него Сэму сложно строить отношения с окружающими, его поведение кажется странным. Пока герой пытается разобраться с устройством личной жизни и определиться со своим предназначением, проблем у него меньше не становится, и решать их приходится родным парня.

rating

• Качество: WEBRip 720p
• Формат: MKV

• Видео: 1280x720 (16:9) | X264/MPEG4-AVC | ~1900 kbps | 23.976 fps
• Аудио 1: AC3 | 48 KHz | 5.1 (Front: L С R Side: L R) + LFE | ~384 kbps [RUS]
• Аудио 2: AC3 | 48 KHz | 5.1 (Front: L С R Side: L R) + LFE | ~384 kbps [ENG]


Реклама: Присутствует звуковая (два раза в начале и конце по 10 сек.)
Переведено и озвучено студией JASKIER
Общее
Уникальный идентификатор                 : 198185526262861000500736746995468350834 (0x951924DA6409841BAF816BD5868A3572)
Полное имя                               : G:\Загрузки\Atypical.S02E01.720p.NF.DD5.1.x264-Jaskier.mkv
Формат                                   : Matroska
Версия формата                           : Version 2
Размер файла                             : 587 Мбайт
Продолжительность                        : 30 м. 16 с.
Режим общего битрейта                    : Переменный
Общий поток                              : 2712 Кбит/сек
Дата кодирования                         : UTC 2018-09-20 21:19:08
Программа кодирования                    : mkvmerge v7.8.0 ('River Man') 32bit built on Apr  3 2015 12:11:22
Библиотека кодирования                   : libebml v1.3.1 + libmatroska v1.4.2

Видео
Идентификатор                            : 1
Формат                                   : AVC
Формат/Информация                        : Advanced Video Codec
Профиль формата                          : Main@L3.1
Настройки формата                        : CABAC / 3 Ref Frames
Параметр CABAC формата                   : Да
Параметр RefFrames формата               : 3 кадра
Идентификатор кодека                     : V_MPEG4/ISO/AVC
Продолжительность                        : 30 м. 16 с.
Вид битрейта                             : Переменный
Битрейт                                  : 1960 Кбит/сек
Максимальный битрейт                     : 2940 Кбит/сек
Ширина                                   : 1280 пикселей
Высота                                   : 720 пикселей
Соотношение сторон                       : 16:9
Режим частоты кадров                     : Постоянный
Частота кадров                           : 23,976 (24000/1001) кадра/сек
Цветовое пространство                    : YUV
Субдискретизация насыщенности            : 4:2:0
Битовая глубина                          : 8 бит
Тип развёртки                            : Прогрессивная
Бит/(Пиксели*Кадры)                      : 0.089
Размер потока                            : 409 Мбайт (70%)
Библиотека кодирования                   : x264 core 148 r2715 7e75228
Настройки программы                      : cabac=1 / ref=3 / deblock=1:0:0 / analyse=0x1:0x111 / me=umh / subme=10 / psy=1 / psy_rd=1.00:0.00 / mixed_ref=1 / me_range=24 / chroma_me=1 / trellis=2 / 8x8dct=0 / cqm=0 / deadzone=21,11 / fast_pskip=1 / chroma_qp_offset=-2 / threads=8 / lookahead_threads=1 / sliced_threads=0 / nr=0 / decimate=1 / interlaced=0 / bluray_compat=0 / stitchable=1 / constrained_intra=0 / bframes=2 / b_pyramid=0 / b_adapt=2 / b_bias=0 / direct=3 / weightb=1 / open_gop=0 / weightp=2 / keyint=48 / keyint_min=25 / scenecut=0 / intra_refresh=0 / rc_lookahead=48 / rc=2pass / mbtree=1 / bitrate=1960 / ratetol=1.0 / qcomp=0.50 / qpmin=6 / qpmax=51 / qpstep=4 / cplxblur=20.0 / qblur=0.5 / vbv_maxrate=2940 / vbv_bufsize=3920 / nal_hrd=vbr / filler=0 / ip_ratio=1.40 / aq=1:1.00
Язык                                     : English
Default                                  : Да
Forced                                   : Нет

Аудио #1
Идентификатор                            : 2
Формат                                   : AC-3
Формат/Информация                        : Audio Coding 3
Коммерческое название                    : Dolby Digital
Идентификатор кодека                     : A_AC3
Продолжительность                        : 30 м. 16 с.
Вид битрейта                             : Постоянный
Битрейт                                  : 384 Кбит/сек
Каналы                                   : 6 каналов
Channel layout                           : L R C LFE Ls Rs
Частота                                  : 48,0 КГц
Частота кадров                           : 31,250 кадров/сек (1536 SPF)
Битовая глубина                          : 16 бит
Метод сжатия                             : С потерями
Размер потока                            : 83,1 Мбайт (14%)
Заголовок                                : Jaskier
Язык                                     : Russian
ServiceKind/String                       : Complete Main
Default                                  : Да
Forced                                   : Нет

Аудио #2
Идентификатор                            : 3
Формат                                   : AC-3
Формат/Информация                        : Audio Coding 3
Коммерческое название                    : Dolby Digital
Идентификатор кодека                     : A_AC3
Продолжительность                        : 30 м. 16 с.
Вид битрейта                             : Постоянный
Битрейт                                  : 384 Кбит/сек
Каналы                                   : 6 каналов
Channel layout                           : L R C LFE Ls Rs
Частота                                  : 48,0 КГц
Частота кадров                           : 31,250 кадров/сек (1536 SPF)
Битовая глубина                          : 16 бит
Метод сжатия                             : С потерями
Размер потока                            : 83,1 Мбайт (14%)
Язык                                     : English
ServiceKind/String                       : Complete Main
Default                                  : Нет
Forced                                   : Нет
скриншот  скриншот  скриншот  
Когда раздача ведётся путём добавления новых серий, при каждом добавлении создётся новый торрент. Чтобы начать докачку новой серии, пользователям необходимо сделать следующее:
(1) остановить скачивание,
(2) удалить старый торрент у себя из клиента (старые серии удалять не надо),
(3) скачать новый торрент и запустить его у себя в клиенте вместо старого, при этом указать клиенту путь в старую папку, куда и должно происходить скачивание новых серий.
Ваш клиент при этом должен произвести хеширование (проверку) старой папки (если не производит сам - помогите ему сделать это), и будет докачивать только те серии, которых у вас ещё нет. Старые серии при этом не удаляются, а продолжают раздаваться!
Eсли вы уже удалили старые серии, то предотвратить повторную закачку старых серий можно, отжав галочку в соответсвующих местах при запуске нового торрента. По возможности, желательно не удалять старые серии как можно дольше, чтобы релизёр не столько продолжал раздавать старые серии, а смог сконцентрироваться на новых.
pb.wtf



Скачать Нетипичный через торрент http://img11.lostpic.net/2018/09/18/8b3594ff227d49c2ab92037c00763cbc.png Скачать фильм Нетипичный через торрент бесплантно в хорошем качестве Описание: На первый взгляд 18-летний Сэм производит впечатление обычного юноши, но стоит к нему присмотреться, как становится понятно, что ... 8.3 10 4
Торрент: Зарегистрирован [2018-09-22 09:15] · скачан: 3 раз
Статус: √ проверено
Размер: 5.77 GB
Как cкачать? Как скачать Нетипичный через торрент | qTorrent

% Раздел Тема Автор DL S | L
Зарубежные сериалы [ 3.43 GB ] Нетипичный / Atypical / Сезон: 2 / Серии: 1-10 из 10 [2018 WEBRip] MVO [Jaskier] bober100 Скачать
1 | 0
Зарубежные сериалы [ 3.39 GB ] Нетипичный / Atypical / Сезон: 2 / Серии 1-10 из 10 [2018 WEBRip] MVO [BaibaKo] GEKADOL Скачать
1 | 0

28-11-2019 20:33  

Отключить всю рекламу на сайте

    Дорогой пользователь! Огромная просьба, поблагодарите релизера, оцените раздачу и оставьте свои комментарий, если Вы скачали Нетипичный через торрент бесплатно! Внесите свою лепту в развитие PiratBit!
    Комментировать посты могут только пользователи прошедшие не сложную регистрацию
    Показать сообщения:    

    Нетипичный через торрент
    Скачать бесплатно Нетипичный
    Нетипичный скачать торрент
    Нетипичный смотреть онлайн
    Cкачать фильм Нетипичный бесплатно
    Нетипичный скачать торрент в хорошем качестве
    Нетипичный смотреть онлайн бесплатно в хорошем качестве


    Вы не можете начинать темы
    Вы не можете отвечать на сообщения
    Вы не можете редактировать свои сообщения
    Вы не можете удалять свои сообщения
    Вы не можете голосовать в опросах
    Вы не можете прикреплять файлы к сообщениям
    Вы можете скачивать файлы