Доктор Стрэндж

Лицензия

Добыча

Дубляж

Уэнсдэй

1 сезон

Тор

Дубляж

В эфире

Дубляж

Там, где раки поют

MVO

Властелин колец

1 сезон

Deluxe

pack

Рекомендуем

30

Пиратка

ВАЖНО

ВАЖНО

Ghostwire

Пиратка

jed

RePack

nioh2

RePack

RDR2

RePack

NEED FOR SPEED™ PAYBACK

RePack

скачать торрент

Кинопоиск HD

Острые козырьки 6 сезон

6 сезон

FAR CRY 6

RePack

скачать торрент

Лицензия

скачать торрент

MVO

1

1 сезон

скачать торрент

1 сезон

скачать торрент

Лицензия

  

Путешествие на край Вселенной / Journey to the Edge of the Universe (Явар Аббас) [2008 г., Документальный, HDRip / КПК] Дубляж

Путешествие на край Вселенной через торрент pb.wtf

Размер: 461 MB | Добавлен: 4 года 2 мес. назад | Торрент скачан:54 раза
| Скачать   

22-09-2018 09:15 Путешествие на край Вселенной Скачать торрент  

Путешествие на край Вселенной / Journey to the Edge of the Universe

Год выпуска: 2008
Страна: Великобритания, США
Жанр: Документальный
Продолжительность: 01:30:33
Перевод: Дублированный
Субтитры: Нет
Режиссер: Явар Аббас
В ролях: Алек Болдуин, Шон Пертуи
Описание: Это путешествие увлекает нас к истокам зарождения жизни, Столпам Мироздания, давая возможность заглянуть далеко за облака космической пыли, туда, где рождаются огромные звезды, даря Вселенной свой свет, а может быть и жизнь…

Качество: HDRip
Формат: MP4
Видео кодек: AVC
Аудио кодек: AAC
Видео: 480x272, 29.970 fps, 580 kbps
Аудио: 2 ch, 48 kHz, 128 Kbps
General
Complete name : C:\Users\G5030\Desktop\Путешествие на край Вселенной.mp4
Format : MPEG-4
Format profile : Base Media
Codec ID : isom (isom/avc1/iso6)
File size : 461 MiB
Duration : 1h 30mn
Overall bit rate mode : Variable
Overall bit rate : 712 Kbps
Encoded date : UTC 2018-09-19 13:24:40
Tagged date : UTC 2018-09-19 13:24:40

Video
ID : 1
Format : AVC
Format/Info : Advanced Video Codec
Format profile : [email protected]
Format settings, CABAC : Yes
Format settings, ReFrames : 8 frames
Codec ID : avc1
Codec ID/Info : Advanced Video Coding
Duration : 1h 30mn
Bit rate : 580 Kbps
Maximum bit rate : 6 831 Kbps
Width : 480 pixels
Height : 272 pixels
Display aspect ratio : 16:9
Frame rate mode : Constant
Frame rate : 29.970 (30000/1001) fps
Original frame rate : 29.970 (29970/1000) fps
Color space : YUV
Chroma subsampling : 4:2:0
Bit depth : 8 bits
Scan type : Progressive
Bits/(Pixel*Frame) : 0.148
Stream size : 376 MiB (81%)
Title : [email protected]
Writing library : x264 core 146 r2538 121396c
Encoding settings : cabac=1 / ref=8 / deblock=1:0:0 / analyse=0x3:0x113 / me=hex / subme=8 / psy=1 / psy_rd=1.00:0.00 / mixed_ref=1 / me_range=16 / chroma_me=1 / trellis=1 / 8x8dct=1 / cqm=0 / deadzone=21,11 / fast_pskip=1 / chroma_qp_offset=-2 / threads=3 / lookahead_threads=1 / sliced_threads=0 / nr=0 / decimate=1 / interlaced=0 / bluray_compat=0 / constrained_intra=0 / bframes=8 / b_pyramid=2 / b_adapt=1 / b_bias=0 / direct=3 / weightb=1 / open_gop=0 / weightp=2 / keyint=250 / keyint_min=25 / scenecut=40 / intra_refresh=0 / rc_lookahead=40 / rc=2pass / mbtree=1 / bitrate=580 / ratetol=1.0 / qcomp=0.60 / qpmin=0 / qpmax=69 / qpstep=4 / cplxblur=20.0 / qblur=0.5 / ip_ratio=1.40 / aq=1:1.00
Encoded date : UTC 2018-09-19 13:24:40
Tagged date : UTC 2018-09-19 13:25:07

Audio
ID : 2
Format : AAC
Format/Info : Advanced Audio Codec
Format profile : LC
Codec ID : 40
Duration : 1h 30mn
Bit rate mode : Variable
Bit rate : 128 Kbps
Maximum bit rate : 134 Kbps
Channel(s) : 2 channels
Channel positions : Front: L R
Sampling rate : 48.0 KHz
Frame rate : 46.875 fps (1024 spf)
Compression mode : Lossy
Stream size : 82.9 MiB (18%)
Encoded date : UTC 2018-09-19 10:42:54
Tagged date : UTC 2018-09-19 13:25:07



Скачать Путешествие на край Вселенной через торрент http://i99.fastpic.ru/big/2018/0922/d0/538f9dac9bc2b58ed129de14c7f09dd0.jpg Скачать, смотреть онлайн Путешествие на край Вселенной бесплантно в хорошем качестве Описание: Это путешествие увлекает нас к истокам зарождения жизни, Столпам Мироздания, давая возможность заглянуть далеко за облака ... 5 10 1
Торрент: Зарегистрирован [2018-09-22 09:15] · скачан: 54 раз
Статус: √ проверено
Размер: 461 MB
Как cкачать? Как скачать Путешествие на край Вселенной через торрент | UTorrent

28-11-2019 20:33  


Отключить вcю реклaмy на сайте, в т.ч. и в плеере онлайн просмотра!

    Дорогой пользователь! Огромная просьба, поблагодарите релизера, оцените раздачу и оставьте свои комментарий, если Вы скачали Путешествие на край Вселенной через торрент бесплатно!!
    Комментировать посты могут только пользователи прошедшие не сложную регистрацию
    Показать сообщения:    


    Путешествие на край Вселенной через торрент
    Скачать бесплатно Путешествие на край Вселенной
    Путешествие на край Вселенной скачать торрент
    Путешествие на край Вселенной смотреть онлайн
    Cкачать фильм Путешествие на край Вселенной бесплатно
    Путешествие на край Вселенной скачать торрент в хорошем качестве
    Путешествие на край Вселенной смотреть онлайн бесплатно в хорошем качестве
    Вы не можете начинать темы
    Вы не можете отвечать на сообщения
    Вы не можете редактировать свои сообщения
    Вы не можете удалять свои сообщения
    Вы не можете голосовать в опросах
    Вы не можете прикреплять файлы к сообщениям
    Вы можете скачивать файлы
    Путешествие на край Вселенной / Journey to the Edge of the Universe [2008 г., Документальный, HDRip / КПК] Дубляж смотреть онлайн, скачать торрент picoco.icu