Ссылка на приватное зеркало нашего сайта всего за 1$. Внимание количество ограничено!!!

2 сезон

iTunes

1 сезон

1

iTunes

iTunes

iTunes

1 сезон

RePack

30

ИГРА 18+

pack

ВАЖНО

!!Акция!!

Alien_RageХит недели

RePack

MK11
pack

Забери бонус

RePack

jed

!!Акция!!

Alien_Rage

RePack

fifa19

RePack

Assassins Creed: Odyssey

RePack

NEED FOR SPEED™ PAYBACK

4 сезон

9 сезон

Бесстыжие 9 сезон

Все сериалы

все сериалы на PB.wtf

RePack

FAR CRY 5
  

Сорок розовых кустов / Серии: 1-4 из 4 (Олег Штром) [2018, мелодрама, SATRip] pb.wtf

Сорок розовых кустов через торрент pb.wtf

Размер: 2.32 GB | Добавлен: 2 года назад | Торрент скачан:33 раза
Скачать  

22-09-2018 14:07 Сорок розовых кустов Скачать торрент  

Сорок розовых кустов Год выпуска: 2018
Страна: Россия
Жанр: мелодрама
Продолжительность: ~ 00:47:00
Субтитры: отсутствуют

Режиссер: Олег Штром



В ролях:

Эмилия Спивак, Елизавета Арзамасова, Екатерина Соломатина, Павел Трубинер, Любовь Матюшина, Вахтанг Беридзе, Дмитрий Бедерин, Максим Битюков

Описание:

На горной дороге падает в пропасть маршрутное такси. Выжить в такой катастрофе почти невозможно, но три пассажирки чудом остаются в живых. Более того, они почти невредимы. В больнице, где женщины проводят ночь, они решают, что судьба что-то хочет им сказать этим чудесным спасением. И действительно: за поворотом, на котором их поджидала смерть, каждую из них встречают потрясения и перемены. Саша получает флешку с таинственным посланием, поэтесса Ива влюбляется в рыбака, а Анна теряет надежду на женское счастье. Трём женщинам предстоит исправить прежние ошибки, совершить много добрых дел, встретить настоящую любовь и даже посадить сорок розовых кустов

Качество: SATRip
Формат: AVI

Видео: XviD, ~ 1650 Кбит/с, 720x400
Аудио: MP3, 2 ch, 192 Кбит/с
скриншот  скриншот  скриншот  скриншот  

Общее
Полное имя : D:\Sorok.rozovyh.kustov.2018.XviD.SATRip.25Kuzmich\Sorok.rozovyh.kustov.(01.seriya.iz.04).XviD.SATRip.25Kuzmich.avi
Формат : AVI
Формат/Информация : Audio Video Interleave
Размер файла : 620 Мбайт
Продолжительность : 46 м. 50 с.
Общий поток : 1851 Кбит/сек
Программа кодирования : VirtualDubMod 1.5.10.3 | www.virtualdub-fr.org || (build 2550/release)
Библиотека кодирования : VirtualDubMod build 2550/release

Видео
Идентификатор : 0
Формат : MPEG-4 Visual
Профиль формата : Advanced Simple@L5
Параметр BVOP формата : 1
Параметр QPel формата : Нет
Параметр GMC формата : Без точки перехода
Параметр матрицы формата : Default (MPEG)
Идентификатор кодека : XVID
Идентификатор кодека/Подсказка : XviD
Продолжительность : 46 м. 50 с.
Битрейт : 1650 Кбит/сек
Ширина : 720 пикселей
Высота : 400 пикселей
Соотношение сторон : 16:9
Частота кадров : 25,000 кадров/сек
Цветовое пространство : YUV
Субдискретизация насыщенности : 4:2:0
Битовая глубина : 8 бит
Тип развёртки : Прогрессивная
Метод сжатия : С потерями
Бит/(Пиксели*Кадры) : 0.229
Размер потока : 553 Мбайт (89%)
Библиотека кодирования : XviD 1.2.1 (UTC 2008-12-04)

Аудио
Идентификатор : 1
Формат : MPEG Audio
Версия формата : Version 1
Профиль формата : Layer 3
Режим : Joint stereo
Расширение режима : MS Stereo
Идентификатор кодека : 55
Идентификатор кодека/Подсказка : MP3
Продолжительность : 46 м. 49 с.
Вид битрейта : Постоянный
Битрейт : 192 Кбит/сек
Каналы : 2 канала
Частота : 48,0 КГц
Метод сжатия : С потерями
Размер потока : 64,3 Мбайт (10%)
Выравнивание : Соединение по промежуткам
Продолжительность промежутка : 40 мс. (1,00 видеокадр)
Время предзагрузки промежутка : 504 мс.
Библиотека кодирования : LAME3.99r
Настройки программы : -m j -V 4 -q 2 -lowpass 18.6 -b 192

pb.wtf



Скачать Сорок розовых кустов через торрент http://i102.fastpic.ru/big/2018/0922/15/05db4a5cec6f3bbd438b6c1525d7da15.jpg Скачать фильм Сорок розовых кустов через торрент бесплантно в хорошем качестве Описание: На горной дороге падает в пропасть маршрутное такси. Выжить в такой катастрофе почти невозможно, но три пассажирки чудом остаются ... 8 10 4
Торрент: Зарегистрирован [2018-09-22 14:07] · скачан: 33 раз
Статус: √ проверено
Размер: 2.32 GB
Как cкачать? Как скачать Сорок розовых кустов через торрент | qTorrent

% Раздел Тема Автор DL S | L
Наши сериалы [ 2.17 GB ] Сорок розовых кустов / Серии: 1-4 из 4 [2018 WEB-DLRip] bober100 Скачать
1 | 0
Наши сериалы [ 2.37 GB ] Сорок розовых кустов / Серии: 1-4 из 4 [2018SATRip-AVC] aleksan55 Скачать
1 | 0

28-11-2019 20:33  

Отключить всю рекламу на сайте

    Дорогой пользователь! Огромная просьба, поблагодарите релизера, оцените раздачу и оставьте свои комментарий, если Вы скачали Сорок розовых кустов через торрент бесплатно! Внесите свою лепту в развитие PiratBit!
    Комментировать посты могут только пользователи прошедшие не сложную регистрацию
    Показать сообщения:    

    Сорок розовых кустов через торрент
    Скачать бесплатно Сорок розовых кустов
    Сорок розовых кустов скачать торрент
    Сорок розовых кустов смотреть онлайн
    Cкачать фильм Сорок розовых кустов бесплатно
    Сорок розовых кустов скачать торрент в хорошем качестве
    Сорок розовых кустов смотреть онлайн бесплатно в хорошем качестве


    Вы не можете начинать темы
    Вы не можете отвечать на сообщения
    Вы не можете редактировать свои сообщения
    Вы не можете удалять свои сообщения
    Вы не можете голосовать в опросах
    Вы не можете прикреплять файлы к сообщениям
    Вы можете скачивать файлы