Ссылка на приватное зеркало всего за 1$. Внимание количество ограничено!!!

OK

1+1

iTunes

мы

OK

1

WEB-DLRip

Джокер

Пифагор

Ведьмак / The Witcher сериал

iTunes

ПШазам

ОК

Оно 2

iTunes

30
pack

Вам бонус

ВАЖНО

!!Акция!!

Alien_RageХит недели

RePack

Resident Evil 21

ИГРА 18+

pack

RePack

jed

RePack

fifa19

RePack

Assassins Creed: Odyssey

RePack

NEED FOR SPEED™ PAYBACK

4 сезон

9 сезон

Бесстыжие 9 сезон

Все сериалы

все сериалы на PB.wtf

RePack

FAR CRY 5
  

Поколение Икс / The Middle of X (Питер Скиллмэн Одиорн) [2018 г., Драма, WEB-DLRip, Любительский (многоголосый)] [Синема УС] pb.wtf

Поколение Икс через торрент pb.wtf

Раздают: 2 [ 0 KB/s ]
Размер: 1.37 GB | Добавлен: 1 год 4 мес. назад | Торрент скачан:39 раз
Скачать  

22-09-2018 14:42 Поколение Икс Скачать торрент  

Поколение Икс / The Middle of X
Год выпуска: 2018
Страна: США
Жанр: Драма
Продолжительность: 01:24:32
Перевод: Любительский (многоголосый) | Синема УС
Субтитры: Отсутствуют

Режиссер: Питер Скиллмэн Одиорн

rating

В ролях: Джейсон Грей-Стенфорд, Бри Блэр, Сэмми Ханратти, Никки Уилан, Тина Паркер, Бенджамин Кинг, Ронни Джин Блевинс, Колин Эглсфилд, Джош Кук, Элизабет Джейн

Описание: Группа друзей из Поколения X с тревогой приезжают на встречу выпускников средней школы, все страдают от кризиса среднего возраста. По мере того, как отчужденные друзья снова вместе, у них появляется возможность взглянуть на жизнь под иным ракурсом. Взглянув свежим взором, оказалось, что не всё так плохо у них, как им самим казалось.

Качество: WEB-DLRip
Формат: AVI
Видео кодек: XviD
Аудио кодек: AC3
Видео: XviD, 720x400 , 23.9fps, 1921 Kbps
Аудио#1: AC3 , 2 ch , 48 kHz , 384 kbps
скриншот   скриншот   скриншот   скриншот   скриншот   скриншот   скриншот  

Общее
Полное имя : D:The.Middle.of.X.2018.P.WEB-DLRip.14OOMB_KOSHARA.avi
Формат : AVI
Формат/Информация : Audio Video Interleave
Размер файла : 1,37 Гбайт
Продолжительность : 1 ч. 24 м.
Общий поток : 2314 Кбит/сек
Программа кодирования : VirtualDubMod 1.5.10.2 (build 2540/release)
Библиотека кодирования : VirtualDubMod build 2540/release

Видео
Идентификатор : 0
Формат : MPEG-4 Visual
Профиль формата : Advanced Simple@L5
Параметр BVOP формата : 2
Параметр QPel формата : Нет
Параметр GMC формата : Без точки перехода
Параметр матрицы формата : Выборочная
Идентификатор кодека : XVID
Идентификатор кодека/Подсказка : XviD
Продолжительность : 1 ч. 24 м.
Битрейт : 1921 Кбит/сек
Ширина : 720 пикселей
Высота : 400 пикселей
Соотношение сторон : 16:9
Частота кадров : 23,976 кадра/сек
Цветовое пространство : YUV
Субдискретизация насыщенности : 4:2:0
Битовая глубина : 8 бит
Тип развёртки : Прогрессивная
Метод сжатия : С потерями
Бит/(Пиксели*Кадры) : 0.278
Размер потока : 1,13 Гбайт (83%)
Библиотека кодирования : XviD 1.2.1 (UTC 2008-12-04)

Аудио
Идентификатор : 1
Формат : AC-3
Формат/Информация : Audio Coding 3
Расширение режима : CM (complete main)
Параметр Endianness формата : Big
Идентификатор кодека : 2000
Продолжительность : 1 ч. 24 м.
Вид битрейта : Постоянный
Битрейт : 384 Кбит/сек
Каналы : 2 канала
Расположение каналов : Front: L R
Частота : 48,0 КГц
Битовая глубина : 16 бит
Метод сжатия : С потерями
Размер потока : 232 Мбайт (17%)
Выравнивание : Разделение по промежуткам
Продолжительность промежутка : 42 мс. (1,00 видеокадр)
Время предзагрузки промежутка : 500 мс.

pb.wtf



Скачать Поколение Икс через торрент http://pic1.kartinco.top/images/11/vvf1c.jpg Скачать фильм Поколение Икс через торрент бесплантно в хорошем качестве Описание: Группа друзей из Поколения X с тревогой приезжают на встречу выпускников средней школы, все страдают от кризиса среднего ... 10 10 2
Торрент: Зарегистрирован [2018-09-22 14:42] · скачан: 39 раз
Статус: T временная
Размер: 1.37 GB
Как cкачать? Как скачать Поколение Икс через торрент | qTorrent

% Раздел Тема Автор DL S | L
T Фильмы (мультфильмы) cо спонсором показа (Новинки AVI/MKV) [ 2.83 GB ] Поколение Икс / The Middle of X [2018 WEB-DL 720p] MVO ["Синема УС"] bober100 Скачать
1 | 0

28-11-2019 20:33  

Отключить всю рекламу на сайте

24-09-2018 11:42 Поколение Икс Скачать торрент  

Ну, так себе фильмец. Смотреть бы не советовалpb.wtf



    Дорогой пользователь! Огромная просьба, поблагодарите релизера, оцените раздачу и оставьте свои комментарий, если Вы скачали Поколение Икс через торрент бесплатно! Внесите свою лепту в развитие PiratBit!
    Комментировать посты могут только пользователи прошедшие не сложную регистрацию
    Показать сообщения:    

    Поколение Икс через торрент
    Скачать бесплатно Поколение Икс
    Поколение Икс скачать торрент
    Поколение Икс смотреть онлайн
    Cкачать фильм Поколение Икс бесплатно
    Поколение Икс скачать торрент в хорошем качестве
    Поколение Икс смотреть онлайн бесплатно в хорошем качестве


    Вы не можете начинать темы
    Вы не можете отвечать на сообщения
    Вы не можете редактировать свои сообщения
    Вы не можете удалять свои сообщения
    Вы не можете голосовать в опросах
    Вы не можете прикреплять файлы к сообщениям
    Вы можете скачивать файлы