Ссылка на приватное зеркало нашего сайта всего за 1$. Внимание количество ограничено!!!

2 сезон

iTunes

1 сезон

1

2 сезон

2 сезон

iTunes

1 сезон

RePack

30

Новинка

ВАЖНО

ИГРА 18+

pack

RePack

MK11
pack

Забери бонус

RePack

jed

!!Акция!!

Alien_Rage

RePack

fifa19

RePack

Assassins Creed: Odyssey

RePack

NEED FOR SPEED™ PAYBACK

4 сезон

9 сезон

Бесстыжие 9 сезон

Все сериалы

все сериалы на PB.wtf

RePack

FAR CRY 5
  

Amanda Somerville's Trillium - Tectonic - 2018/ FLAC/ image +.cue/ lossless/ Symphonic Metal pb.wtf

Amanda Somerville's Trillium - Tectonic - 2018 через торрент pb.wtf

Размер: 397 MB | Добавлен: 2 года 2 мес. назад | Торрент скачан:11 раз
Скачать  

22-09-2018 15:52 Amanda Somerville's Trillium - Tectonic - 2018 Скачать торрент  


Amanda Somerville's Trillium - Tectonic


Год издания: 2018
Страна: Netherlands
Жанр: Symphonic Metal
Продолжительность: 00:48:45
Лейбл издания: King Record Co.
Страна-выпуска диска: Japan
Номер по каталогу: KICP 1917
Формат: FLAC
Битрейт аудио: Lossless
Тип рипа: image +.cue
Наличие сканов в содержимом раздачи: да


01. Time To Shine (4:24)
02. Stand Up (4:01)
03. Full Speed Ahead (4:03)
04. Hit Me (4:34)
05. Fighting Fate (4:36)
06. Nocturna (4:25)
07. Fatal Mistake (4:59)
08. Shards (4:45)
09. Cliche Freak Show (4:07)
10. Eternal Spring (4:15)
11. Shards (Acoustic Version) (Bonus Track) (4:36)

Код:

Exact Audio Copy V1.3 from 2. September 2016

EAC extraction logfile from 19. September 2018, 20:24

Trillium / Tectonic (Japan)

Used drive  : ATAPI   iHAS122   W   Adapter: 2  ID: 0

Read mode               : Secure
Utilize accurate stream : Yes
Defeat audio cache      : Yes
Make use of C2 pointers : No

Read offset correction                      : 48
Overread into Lead-In and Lead-Out          : No
Fill up missing offset samples with silence : Yes
Delete leading and trailing silent blocks   : No
Null samples used in CRC calculations       : Yes
Used interface                              : Installed external ASPI interface

Used output format              : User Defined Encoder
Selected bitrate                : 1024 kBit/s
Quality                         : High
Add ID3 tag                     : No
Command line compressor         : C:\Program Files\FLAC\flac.exe
Additional command line options : -V -8 -T "Date=%year%" -T "Genre=%genre%" -T"COMMENT=Ripped by  Ilijan [MeTaLMaDNeSS.TeaM]" -8 -V %source%

TOC of the extracted CD

     Track |   Start  |  Length  | Start sector | End sector
    ---------------------------------------------------------
        1  |  0:00.00 |  4:23.39 |         0    |    19763
        2  |  4:23.39 |  4:01.20 |     19764    |    37858
        3  |  8:24.59 |  4:03.21 |     37859    |    56104
        4  | 12:28.05 |  4:34.01 |     56105    |    76655
        5  | 17:02.06 |  4:35.42 |     76656    |    97322
        6  | 21:37.48 |  4:24.62 |     97323    |   117184
        7  | 26:02.35 |  4:59.17 |    117185    |   139626
        8  | 31:01.52 |  4:44.52 |    139627    |   160978
        9  | 35:46.29 |  4:06.46 |    160979    |   179474
       10  | 39:53.00 |  4:15.26 |    179475    |   198625
       11  | 44:08.26 |  4:36.12 |    198626    |   219337

Range status and errors

Selected range

     Filename D:\Vknish+g.y.m.=3.14дарасы (Upload On Rutracker, DIE!!!)\Trillium - Tectonic (Japan).wav

     Peak level 98.8 %
     Extraction speed 3.7 X
     Range quality 100.0 %
     Test CRC BF329F44
     Copy CRC BF329F44
     Copy OK

No errors occurred

AccurateRip summary

Track  1  not present in database
Track  2  not present in database
Track  3  not present in database
Track  4  not present in database
Track  5  not present in database
Track  6  not present in database
Track  7  not present in database
Track  8  not present in database
Track  9  not present in database
Track 10  not present in database
Track 11  not present in database

None of the tracks are present in the AccurateRip database

End of status report

Код:

REM GENRE "Symphonic Metal"
REM DATE 2018
REM DISCID 930B6C0B
REM COMMENT "ExactAudioCopy v1.3"
PERFORMER "Trillium"
TITLE "Tectonic (Japan)"
FILE "Trillium - Tectonic (Japan).flac" WAVE
  TRACK 01 AUDIO
    TITLE "Time To Shine"
    PERFORMER "Trillium"
    INDEX 01 00:00:00
  TRACK 02 AUDIO
    TITLE "Stand Up"
    PERFORMER "Trillium"
    INDEX 01 04:23:39
  TRACK 03 AUDIO
    TITLE "Full Speed Ahead"
    PERFORMER "Trillium"
    INDEX 01 08:24:59
  TRACK 04 AUDIO
    TITLE "Hit Me"
    PERFORMER "Trillium"
    INDEX 01 12:28:05
  TRACK 05 AUDIO
    TITLE "Fighting Fate"
    PERFORMER "Trillium"
    INDEX 01 17:02:06
  TRACK 06 AUDIO
    TITLE "Nocturna"
    PERFORMER "Trillium"
    INDEX 01 21:37:48
  TRACK 07 AUDIO
    TITLE "Fatal Mistake"
    PERFORMER "Trillium"
    INDEX 01 26:02:35
  TRACK 08 AUDIO
    TITLE "Shards"
    PERFORMER "Trillium"
    INDEX 01 31:01:52
  TRACK 09 AUDIO
    TITLE "Cliche Freak Show"
    PERFORMER "Trillium"
    INDEX 01 35:46:29
  TRACK 10 AUDIO
    TITLE "Eternal Spring"
    PERFORMER "Trillium"
    INDEX 01 39:53:00
  TRACK 11 AUDIO
    TITLE "Shards (Acoustic Version) (Bonus Track)"
    PERFORMER "Trillium"
    INDEX 01 44:08:26




pb.wtf



Скачать Amanda Somerville's Trillium - Tectonic - 2018 через торрент http://i102.fastpic.ru/big/2018/0922/a6/a584276692560f6503e4ba2d6bd79ca6.png Скачать фильм Amanda Somerville's Trillium - Tectonic - 2018через торрент бесплантно в хорошем качестве Трэклист Time To Shine (4:24) Stand Up (4:01) Full Speed Ahead (4:03) Hit Me (4:34) Fighting Fate (4:36) ... 10 10 2
Торрент: Зарегистрирован [2018-09-22 15:52] · скачан: 11 раз
Статус: √ проверено
Размер: 397 MB
Как cкачать? Как скачать Amanda Somerville's Trillium - Tectonic - 2018 через торрент | qTorrent

28-11-2019 20:33  

Отключить всю рекламу на сайте

    Дорогой пользователь! Огромная просьба, поблагодарите релизера, оцените раздачу и оставьте свои комментарий, если Вы скачали Amanda Somerville's Trillium - Tectonic - 2018 через торрент бесплатно! Внесите свою лепту в развитие PiratBit!
    Комментировать посты могут только пользователи прошедшие не сложную регистрацию
    Показать сообщения:    

    Amanda Somerville's Trillium - Tectonic - 2018 через торрент
    Скачать бесплатно Amanda Somerville's Trillium - Tectonic - 2018
    Amanda Somerville's Trillium - Tectonic - 2018 скачать торрент
    Amanda Somerville's Trillium - Tectonic - 2018 смотреть онлайн
    Cкачать фильм Amanda Somerville's Trillium - Tectonic - 2018 бесплатно
    Amanda Somerville's Trillium - Tectonic - 2018 скачать торрент в хорошем качестве
    Amanda Somerville's Trillium - Tectonic - 2018 смотреть онлайн бесплатно в хорошем качестве


    Вы не можете начинать темы
    Вы не можете отвечать на сообщения
    Вы не можете редактировать свои сообщения
    Вы не можете удалять свои сообщения
    Вы не можете голосовать в опросах
    Вы не можете прикреплять файлы к сообщениям
    Вы можете скачивать файлы