Anonymous, добрый вечер, присоединяйтесь к нам в Telegram!, здесь всегда актуальный адрес сайта, оперативная поддержка и многое другое!

>

5.6

iTunes

7.4

iTunes

5.7

MVO

1

7.7

1 сезон

6.8

iTunes

7.3

1 сезон

13

6.7

1 сезон

8.3

RePack

30

ULTIMATE

pack

9.9

Лицензия

ВАЖНО

ИГРА 18+

pack

7.3

RePack

MK11

7.7

RePack

jed

7.8

RePack

fifa19

8.5

RePack

RDR2

RePack

NEED FOR SPEED™ PAYBACK

4 сезон

9 сезон

Бесстыжие 9 сезон

Все сериалы

все сериалы на PB.wtf

RePack

FAR CRY 5

Anonymous, добрый вечер, мы катастрофически не успеваем собрать деньги на оплату серверов, помогите нам пожалуйста 5,10,15р., для нас важна любая помощь . В качестве благодарности мы отключим Вам всю рекламу на сайте (укажите свой ник в строку Ваше имя)!

×
  
Magnet ссылка

Бонус / Сезон: 1 / Серии: (1-9 из 16) (Валерия Гай Германика) [2018 , драма, музыка, WEBRip-AVC] Не требуется [Русский] R.G.Generalfilm pb.wtf

Бонус через торрент pb.wtf

Размер: 5.34 GB | Добавлен: 2 года 11 мес. назад | Торрент скачан:30 раз
Смотреть онлайн Бонус | Скачать    Ребята, помогите собрать деньги на оплату серверов!!!

22-09-2018 16:58 Бонус Скачать торрент  



««...И плевать, что будет потом»»


Год выпуска: 2018

Страна: Россия
Жанр: драма, музыка
Продолжительность: 00:35:34
Перевод: Не требуется [Русский]
Режиссер: Валерия Гай Германика
В ролях:

Александр Сударев (Бонус), Лана Райдер (Соня), Артем Сучков (Гашик), Дмитрий Смирнов (Курт, наркоман), Антон Адасинский (Alter ego Бонуса), Алексей Литвиненко (Леонид, жених Сони), Юлия Ауг (мама Сони и Курта), Александр Усердин (отец Сони и Курта, бизнесмен), Лариса Баранова (Наташа, сестра Гашика), Евгения Храповицкая (Соня-2), Игорь Верник (руководитель рэп-студии), Агния Дитковските
Описание:
Главный герой сериала - парень по кличке Бонус. Молодой пацан из глубокой провинции заразился рэпом, после того как мама подарила ему на 13-летие плеер. С тех пор парень стал слушать рэп, а затем и сам стал писать. Так пацан Ваня стал на районе известен как Бонус. У Бонуса был друг по кличке Гашик - уличный дилер, и именно он волею случая привозит Бонуса в Москву. В столице Бонус знакомится с Соней - дочкой крупного бизнесмена, между ними возникает сильное притяжение. Бонусу предстоит пережить ­несчастную любовь, конфликты с отцом девушки, взлеты и падения на фоне столичной рэп-­тусовки.

Качество: WEBRip-AVC
Формат: MKV
Видео кодек: AVC
Аудио кодек: AC3
Видео: AVC, 1024x426 (2.40:1), 1783 kbps, 25 fps, 0,163 bpp
Аудио: AC3 / 2.0 / 48 kHz / 192 kbps /
General
Unique ID : 252512074726519489681664068890232584603 (0xBDF80E7D91664A27AABAC1F38457799B)
Complete name : E:\Запись с тв\Bonus 2018 WEBRip-AVC R.G.Generalfilm\Bonus.s01e01.2018.WEBRip-AVC.by.White Smoke.R.G.Generalfilm.mkv
Format : Matroska
Format version : Version 4 / Version 2
File size : 503 MiB
Duration : 35 min
Overall bit rate : 1 978 kb/s
Movie name : Bonus.s01e01.2018.WEBRip-AVC.by.White Smoke.R.G.Generalfilm.mkv
Encoded date : UTC 2018-09-20 14:09:33
Writing application : mkvmerge v6.8.0 ('Theme for Great Cities') 64bit built on Mar 2 2014 21:34:26
Writing library : libebml v1.3.0 + libmatroska v1.4.1
Cover : Yes
Attachments : cover.jpg

Video
ID : 1
Format : AVC
Format/Info : Advanced Video Codec
Format profile : High@L4.1
Format settings, CABAC : Yes
Format settings, ReFrames : 10 frames
Codec ID : V_MPEG4/ISO/AVC
Duration : 35 min
Bit rate : 1 783 kb/s
Width : 1 024 pixels
Height : 426 pixels
Display aspect ratio : 2.40:1
Frame rate mode : Constant
Frame rate : 25.000 FPS
Color space : YUV
Chroma subsampling : 4:2:0
Bit depth : 8 bits
Scan type : Progressive
Bits/(Pixel*Frame) : 0.163
Stream size : 444 MiB (88%)
Writing library : x264 core 148 r2638 7599210
Encoding settings : cabac=1 / ref=10 / deblock=1:-2:-1 / analyse=0x3:0x113 / me=umh / subme=11 / psy=1 / psy_rd=0.00:0.15 / mixed_ref=1 / me_range=32 / chroma_me=1 / trellis=2 / 8x8dct=1 / cqm=0 / deadzone=21,11 / fast_pskip=0 / chroma_qp_offset=-3 / threads=6 / lookahead_threads=1 / sliced_threads=0 / nr=0 / decimate=0 / interlaced=0 / bluray_compat=0 / constrained_intra=0 / bframes=10 / b_pyramid=2 / b_adapt=2 / b_bias=0 / direct=1 / weightb=1 / open_gop=0 / weightp=2 / keyint=250 / keyint_min=25 / scenecut=40 / intra_refresh=0 / rc_lookahead=40 / rc=2pass / mbtree=1 / bitrate=1783 / ratetol=1.0 / qcomp=0.65 / qpmin=0 / qpmax=69 / qpstep=4 / cplxblur=20.0 / qblur=0.5 / vbv_maxrate=50000 / vbv_bufsize=65500 / nal_hrd=none / filler=0 / ip_ratio=1.40 / aq=1:1.00
Language : English
Default : Yes
Forced : No

Audio
ID : 2
Format : AC-3
Format/Info : Audio Coding 3
Mode extension : CM (complete main)
Format settings, Endianness : Big
Codec ID : A_AC3
Duration : 35 min
Bit rate mode : Constant
Bit rate : 192 kb/s
Channel(s) : 2 channels
Channel positions : Front: L R
Sampling rate : 48.0 kHz
Frame rate : 31.250 FPS (1536 spf)
Compression mode : Lossy
Stream size : 48.8 MiB (10%)
Default : Yes
Forced : No
Внимание! Раздача ведётся путём добавления новых серий; при каждом добавлении создаётся новый торрент.
Чтобы начать докачку новой серии, пользователям необходимо сделать следующее:
1. Остановить скачивание;
2. Удалить старый торрент у себя из клиента (старые серии удалять не надо);
3. Скачать новый торрент и запустить его у себя в клиенте вместо старого, при этом указать клиенту путь в старую папку куда и должно происходить скачивание новых серий. Ваш клиент при этом должен произвести хеширование (проверку) старой папки и будет докачивать только те серии, которых у вас ещё нет. Старые серии при этом не удаляются, а продолжают раздаваться! Eсли вы уже удалили старые серии, то предотвратить повторную закачку старых серий можно, отжав галочку в соответствующих местах при запуске нового торрента.
pb.wtf



Скачать Бонус через торрент http://interhit.org/img/2018-05/27/95e0rpzgd7ieqwngygkarjw3v.gif Скачать, смотреть онлайн Бонус бесплантно в хорошем качестве Описание: Главный герой сериала - парень по кличке Бонус. Молодой пацан из глубокой провинции заразился рэпом, после того как мама подарила ... 8.7 10 7
× Info от релизера! Добавлена 9 серия
Info! Золотая раздача, скачанное не засчитывается.
Торрент: Зарегистрирован [2018-11-03 00:59] · скачан: 30 раз
Статус: √ проверено
Размер: 5.34 GB
Как cкачать? Как скачать Бонус через торрент | UTorrent

28-11-2019 20:33  

Отключить всю рекламу на сайте

14-11-2018 06:11 Бонус Скачать торрент  

Когда 10 серию добавите?pb.wtf



15-11-2018 16:39 Бонус Скачать торрент  

voleba210405 писал(а):

Когда 10 серию добавите?

Да мне тоже интересно где 10 серия ?pb.wtf



    Дорогой пользователь! Огромная просьба, поблагодарите релизера, оцените раздачу и оставьте свои комментарий, если Вы скачали Бонус через торрент бесплатно!
    Комментировать посты могут только пользователи прошедшие не сложную регистрацию
    Показать сообщения:    

    Бонус через торрент
    Скачать бесплатно Бонус
    Бонус скачать торрент
    Бонус смотреть онлайн
    Cкачать фильм Бонус бесплатно
    Бонус скачать торрент в хорошем качестве
    Бонус смотреть онлайн бесплатно в хорошем качестве


    Вы не можете начинать темы
    Вы не можете отвечать на сообщения
    Вы не можете редактировать свои сообщения
    Вы не можете удалять свои сообщения
    Вы не можете голосовать в опросах
    Вы не можете прикреплять файлы к сообщениям
    Вы можете скачивать файлы