Ссылка на приватное зеркало нашего сайта всего за 1$. Внимание количество ограничено!!!

2 сезон

iTunes

1 сезон

1

iTunes

iTunes

iTunes

1 сезон

RePack

30

ИГРА 18+

pack

ВАЖНО

!!Акция!!

Alien_RageХит недели

RePack

MK11
pack

Забери бонус

RePack

jed

!!Акция!!

Alien_Rage

RePack

fifa19

RePack

Assassins Creed: Odyssey

RePack

NEED FOR SPEED™ PAYBACK

4 сезон

9 сезон

Бесстыжие 9 сезон

Все сериалы

все сериалы на PB.wtf

RePack

FAR CRY 5
  

Мое сердце с тобой / Серии: 1-4 из 4 (Сергей Лялин) [2018, Мелодрама, SATRip] pb.wtf

Мое сердце с тобой через торрент pb.wtf

Размер: 2.42 GB | Добавлен: 2 года 1 мес. назад | Торрент скачан:79 раз
Скачать  

22-09-2018 18:03 Мое сердце с тобой Скачать торрент  

Мое сердце с тобойГод выпуска: 2018
Страна: Россия
Жанр: Мелодрама
Продолжительность: ~ 00:44:00
Субтитры: отсутствуют

Режиссер: Сергей Лялин



В ролях:

Ольга Павловец, Алексей Фатеев, Илья Оболонков, Аделина Коблова, Елена Вербицкая, Ева Авеева, Даниил Вершинин, Анастасия Дубровина

Описание:

Скромная учительница математики Ольга (Ольга Павловец) всю себя посвящает семье – мужу Вадиму (Илья Оболонков) и дочке Лене. Вадим же за ее спиной живет в свое удовольствие, крутит романы и в один момент совсем уходит из семьи к любовнице. Ольга остается одна с маленькой дочкой без средств к существованию. Она вынуждена подать на алименты, но муж обнаруживает поразительное обстоятельство: оказывается, Леночка – не его дочь! Ольга раздавлена такой незаслуженной клеветой, ведь она знает, что была верна мужу. Но самое страшное испытание ждет ее впереди, когда Лена тяжело заболевает. Ольга готова стать донором, но в больнице ей сообщают, то все эти годы она воспитывала чужого ребенка… Теперь Олеге предстоит понять, как такое могло произойти, найти настоящих родителей Лены и спасти девочку от гибели…

Качество: SATRip
Формат: AVI

Видео: XviD, 1800 Кбит/с, 720x400
Аудио: МР3, 2 ch, 128 Кбит/с
скриншот  скриншот  скриншот  скриншот  скриншот  

Общее
Полное имя : D:\Moe.serdce.s.toboj.SATRip\Moe.serdce.s.toboj.01.SATRip.avi
Формат : AVI
Формат/Информация : Audio Video Interleave
Размер файла : 610 Мбайт
Продолжительность : 43 м. 59 с.
Общий поток : 1938 Кбит/сек
Программа кодирования : VirtualDubMod 1.5.10.3 | www.virtualdub-fr.org || (build 2550/release)
Библиотека кодирования : VirtualDubMod build 2550/release

Видео
Идентификатор : 0
Формат : MPEG-4 Visual
Профиль формата : Advanced Simple@L5
Параметр BVOP формата : 2
Параметр QPel формата : Нет
Параметр GMC формата : Без точки перехода
Параметр матрицы формата : Default (H.263)
Идентификатор кодека : XVID
Идентификатор кодека/Подсказка : XviD
Продолжительность : 43 м. 59 с.
Битрейт : 1800 Кбит/сек
Ширина : 720 пикселей
Высота : 400 пикселей
Соотношение сторон : 16:9
Частота кадров : 25,000 кадров/сек
Цветовое пространство : YUV
Субдискретизация насыщенности : 4:2:0
Битовая глубина : 8 бит
Тип развёртки : Прогрессивная
Метод сжатия : С потерями
Бит/(Пиксели*Кадры) : 0.250
Размер потока : 566 Мбайт (93%)
Библиотека кодирования : XviD 1.2.1 (UTC 2008-12-04)

Аудио
Идентификатор : 1
Формат : MPEG Audio
Версия формата : Version 1
Профиль формата : Layer 3
Режим : Joint stereo
Расширение режима : MS Stereo
Идентификатор кодека : 55
Идентификатор кодека/Подсказка : MP3
Продолжительность : 43 м. 59 с.
Вид битрейта : Постоянный
Битрейт : 128 Кбит/сек
Каналы : 2 канала
Частота : 48,0 КГц
Метод сжатия : С потерями
Размер потока : 40,3 Мбайт (7%)
Выравнивание : Соединение по промежуткам
Продолжительность промежутка : 40 мс. (1,00 видеокадр)
Время предзагрузки промежутка : 504 мс.
Библиотека кодирования : LAME3.99r
Настройки программы : -m j -V 4 -q 9 -lowpass 17 -b 128

pb.wtf



Скачать Мое сердце с тобой через торрент http://www.kino-teatr.ru/movie/posters/big/3/131673.jpg Скачать фильм Мое сердце с тобой через торрент бесплантно в хорошем качестве Описание: Скромная учительница математики Ольга (Ольга Павловец) всю себя посвящает семье – мужу Вадиму (Илья Оболонков) и дочке Лене. ... 10 10 6
Торрент: Зарегистрирован [2018-09-22 18:03] · скачан: 79 раз
Статус: √ проверено
Размер: 2.42 GB
Как cкачать? Как скачать Мое сердце с тобой через торрент | qTorrent

28-11-2019 20:33  

Отключить всю рекламу на сайте

    Дорогой пользователь! Огромная просьба, поблагодарите релизера, оцените раздачу и оставьте свои комментарий, если Вы скачали Мое сердце с тобой через торрент бесплатно! Внесите свою лепту в развитие PiratBit!
    Комментировать посты могут только пользователи прошедшие не сложную регистрацию
    Показать сообщения:    

    Мое сердце с тобой через торрент
    Скачать бесплатно Мое сердце с тобой
    Мое сердце с тобой скачать торрент
    Мое сердце с тобой смотреть онлайн
    Cкачать фильм Мое сердце с тобой бесплатно
    Мое сердце с тобой скачать торрент в хорошем качестве
    Мое сердце с тобой смотреть онлайн бесплатно в хорошем качестве


    Вы не можете начинать темы
    Вы не можете отвечать на сообщения
    Вы не можете редактировать свои сообщения
    Вы не можете удалять свои сообщения
    Вы не можете голосовать в опросах
    Вы не можете прикреплять файлы к сообщениям
    Вы можете скачивать файлы